<?xml version="1.0" standalone="no"?>
<!DOCTYPE svg PUBLIC "-//W3C//DTD SVG 1.1//EN" "http://www.w3.org/Graphics/SVG/1.1/DTD/svg11.dtd" >
<svg xmlns="http://www.w3.org/2000/svg" xmlns:xlink="http://www.w3.org/1999/xlink" version="1.1">
<metadata>
Created by FontForge 20161003 at Mon Sep 25 19:56:52 2017
 By www-data
Copyright (C) 1992, 2007 Hoefler &#38; Co. http://www.typography.com
</metadata>
<defs>
<font id="HTFDidotLightIta06" horiz-adv-x="624" >
  <font-face 
    font-family="HTFDidotLightIta06"
    font-weight="300"
    font-style="italic"
    font-stretch="normal"
    units-per-em="1000"
    panose-1="0 0 0 0 0 0 0 0 0 0"
    ascent="800"
    descent="-200"
    x-height="434"
    cap-height="709"
    bbox="-230 -354 1079.5 1086"
    underline-thickness="50"
    underline-position="-150"
    unicode-range="U+0020-FB04"
  />
<missing-glyph horiz-adv-x="500" 
d="M0 -200v1000h500v-1000h-500zM71 750l179 -390l179 390h-358zM50 -76l172 376l-172 376v-752zM450 676l-172 -376l172 -376v752zM250 240l-179 -390h358z" />
    <glyph glyph-name="f_f" unicode="ff" horiz-adv-x="508" 
d="M704 658q0 -24 -15 -42.5t-34 -18.5q-40 0 -40 34q0 11 9 30.5t9 25.5q0 17 -7 24.5t-24 7.5q-34 0 -65 -42.5t-71 -168.5q-9 -29 -21 -73h117q1 0 -0.5 -6t-3.5 -11.5t-3 -5.5h-117q-51 -190 -144 -473q-37 -115 -97 -185t-130 -70q-67 0 -99 35q-25 -20 -40.5 -27.5
t-40.5 -7.5q-42 0 -63.5 23t-21.5 61q0 24 15 42.5t34 18.5q40 0 40 -33q0 -12 -9 -30.5t-9 -25.5q0 -32 28 -32q35 0 52 33t59 163q24 76 69 260.5t63 247.5h-104q-1 0 0.5 6t4 11.5t3.5 5.5h103q12 41 17 56q37 115 96 183.5t129 68.5t103 -50q58 50 120 50q88 0 88 -85z
M480 675q-30 43 -81 43q-46 0 -76.5 -39.5t-71.5 -170.5q-9 -29 -21 -73h136q5 19 17 56q43 132 97 184zM359 412h-136q-13 -49 -41.5 -158t-49.5 -185.5t-37 -125.5q-47 -144 -110 -205q28 -29 76 -29q32 0 53 11.5t47 57t54 134.5q31 99 144 500z" />
    <glyph glyph-name="fi" unicode="fi" horiz-adv-x="509" 
d="M506 623q0 -24 -15.5 -44t-34.5 -20q-42 0 -42 38q0 16 16 37t16 35q0 28 -14.5 39t-44.5 11q-34 0 -65 -42.5t-71 -168.5q-9 -29 -21 -73h144q61 0 80 19q1 1 4.5 0.5t6.5 -2.5t3 -3q-14 -43 -49.5 -132t-60 -155.5t-24.5 -87.5q0 -38 30 -38q16 0 39.5 16t41.5 48
l24 -9q-25 -49 -65 -74.5t-72 -25.5q-73 0 -73 71q0 37 54 180t59 170h-149q-13 -49 -41.5 -158t-49.5 -185.5t-37 -125.5q-21 -64 -38.5 -105.5t-41.5 -79.5t-54 -56t-67 -18q-43 0 -67.5 23.5t-24.5 60.5q0 24 15 42.5t34 18.5q40 0 40 -33q0 -12 -9 -30.5t-9 -25.5
q0 -32 28 -32q35 0 52 33t59 163q24 76 69 260.5t63 247.5h-104q-1 0 0.5 6t4 11.5t3.5 5.5h103q12 41 17 56q37 115 96 183.5t129 68.5q53 0 83 -34t30 -86z" />
    <glyph glyph-name="fl" unicode="fl" horiz-adv-x="506" 
d="M556 739l-212 -672q-5 -14 1 -22.5t19 -8.5q16 0 39.5 16t41.5 48l23 -9q-25 -50 -62 -75t-68 -25q-46 0 -61 33.5t3 88.5l95 298h-153q-13 -47 -41.5 -157.5t-49.5 -186t-37 -124.5q-42 -130 -86 -194.5t-114 -64.5q-43 0 -68 23.5t-25 60.5q0 24 15 42.5t35 18.5
q40 0 40 -33q0 -12 -9 -30.5t-9 -25.5q0 -32 27 -32q35 0 52.5 33.5t58.5 162.5q24 77 70.5 264t61.5 243h-103q-1 0 0.5 6t3.5 12t3 6h104q5 22 16 56q37 114 99.5 183t134.5 69q42 0 71 -25q13 0 23.5 1.5t16.5 3t11.5 5t7.5 5t6 6.5l4 5q4 4 13 -2q2 -2 2 -3zM462 694
q-18 15 -31 20t-36 5q-35 0 -70.5 -43t-74.5 -168q-3 -10 -20 -73h152z" />
    <glyph glyph-name="f_f_i" unicode="ffi" horiz-adv-x="724" 
d="M721 623q0 -24 -16 -44t-35 -20q-42 0 -42 38q0 16 16 37t16 35q0 29 -14 39.5t-44 10.5q-22 0 -40 -13t-43.5 -62t-53.5 -136q-4 -14 -10.5 -37t-10.5 -36h145q38 0 52.5 3.5t26.5 15.5q4 4 13 -2q2 -2 2 -3q-14 -41 -49.5 -131t-60 -156.5t-24.5 -87.5q0 -38 30 -38
q16 0 39.5 16t41.5 48l23 -9q-25 -49 -65 -74.5t-72 -25.5q-72 0 -72 71q0 37 53.5 179.5t58.5 170.5h-149q-51 -190 -144 -473q-37 -115 -97 -185t-130 -70q-67 0 -99 35q-25 -20 -40.5 -27.5t-40.5 -7.5q-42 0 -63.5 23t-21.5 61q0 24 15 42.5t34 18.5q40 0 40 -33
q0 -12 -9 -30.5t-9 -25.5q0 -32 28 -32q35 0 52 33t59 163q24 76 69 260.5t63 247.5h-104q-1 0 0.5 6t4 11.5t3.5 5.5h103q12 41 17 56q37 114 99.5 183t134.5 69q68 0 99 -46q51 46 108 46q53 0 83 -34t30 -86zM483 679q-17 21 -33 30t-44 9q-48 0 -81.5 -40.5
t-74.5 -169.5q-9 -29 -21 -73h136q5 19 17 56q38 119 101 188zM358 412h-136q-13 -49 -41.5 -158t-49.5 -185.5t-37 -125.5q-48 -145 -110 -207q25 -27 77 -27q32 0 52.5 11.5t46.5 57.5t54 134q51 162 144 500z" />
    <glyph glyph-name="f_f_l" unicode="ffl" horiz-adv-x="722" 
d="M772 739l-212 -672q-10 -31 20 -31q16 0 39.5 16t40.5 48l24 -9q-26 -50 -62.5 -75t-67.5 -25q-46 0 -61 33.5t3 88.5l94 298h-152q-50 -184 -144 -472q-38 -115 -97.5 -185t-129.5 -70q-66 0 -100 35q-24 -20 -40 -27.5t-40 -7.5q-42 0 -63.5 23t-21.5 60q0 25 15 43.5
t34 18.5q40 0 40 -34q0 -11 -9 -29.5t-9 -25.5q0 -32 27 -32q35 0 52.5 33.5t58.5 162.5q24 78 70.5 265.5t61.5 241.5h-103q-1 0 0.5 6t4 12t3.5 6h103q3 9 8 27t8 29q38 115 97 183.5t129 68.5q74 0 105 -49q56 49 118 49q43 0 72 -25q13 0 23 1.5t16 3t11.5 5t7.5 5.5
l6 6l5 5q1 2 8 -0.5t7 -4.5zM678 694q-32 25 -68 25q-20 0 -34.5 -7t-32.5 -28t-37 -64.5t-40 -111.5q-9 -29 -21 -73h152zM480 674q-24 44 -81 44q-31 0 -51.5 -13.5t-45 -60t-52.5 -136.5q-3 -10 -20 -73h136q14 47 17 56q41 128 97 183zM359 411h-136
q-15 -55 -42.5 -159.5t-49 -182t-37.5 -126.5q-47 -143 -107 -206q26 -29 74 -29q32 0 53 12t46.5 57.5t53.5 133.5q43 136 145 500z" />
    <glyph glyph-name="f_b" unicode="fb" horiz-adv-x="743" 
d="M462 694q-18 15 -31 20t-36 5q-35 0 -70.5 -43t-74.5 -168q-3 -10 -20 -73h152zM375 411h-153q-13 -47 -41.5 -157.5t-49.5 -186t-37 -124.5q-42 -130 -86 -194.5t-114 -64.5q-43 0 -68 23.5t-25 60.5q0 24 15 42.5t35 18.5q40 0 40 -33q0 -12 -9 -30.5t-9 -25.5
q0 -32 27 -32q35 0 52.5 33.5t58.5 162.5q24 77 70.5 264t61.5 243h-103q-1 0 0.5 6t3.5 12t3 6h104q5 22 16 56q37 114 99.5 183t134.5 69q42 0 71 -25q13 0 23.5 1.5t16.5 3t11.5 5t7.5 5t6 6.5l4 5q4 4 13 -2q2 -2 2 -3l-122 -392q16 38 51 62.5t69 24.5
q63 0 103.5 -39.5t40.5 -106.5q0 -114 -92.5 -205.5t-198.5 -91.5q-73 0 -103.5 48.5t-5.5 126.5zM625 312q0 47 -16 70t-58 23q-43 0 -80.5 -40.5t-65.5 -112.5l-47 -143q-13 -43 2 -69t49 -26q47 0 77.5 16.5t59.5 55.5q27 37 53 107.5t26 118.5z" />
    <glyph glyph-name="f_h" unicode="fh" horiz-adv-x="753" 
d="M462 694q-18 15 -31 20t-36 5q-35 0 -70.5 -43t-74.5 -168q-3 -10 -20 -73h152zM375 411h-153q-13 -47 -41.5 -157.5t-49.5 -186t-37 -124.5q-42 -130 -86 -194.5t-114 -64.5q-43 0 -68 23.5t-25 60.5q0 24 15 42.5t35 18.5q40 0 40 -33q0 -12 -9 -30.5t-9 -25.5
q0 -32 27 -32q35 0 52.5 33.5t58.5 162.5q24 77 70.5 264t61.5 243h-103q-1 0 0.5 6t3.5 12t3 6h104q5 22 16 56q37 114 99.5 183t134.5 69q42 0 71 -25q13 0 23.5 1.5t16.5 3t11.5 5t7.5 5t6 6.5l4 5q4 4 13 -2q2 -2 2 -3l-148 -470q41 75 102.5 120t109.5 45
q26 0 47.5 -19.5t21.5 -59.5q0 -45 -43.5 -148t-43.5 -133q0 -39 30 -39q24 0 42.5 15t38.5 50l23 -9q-25 -49 -63 -74.5t-70 -25.5q-39 0 -59.5 19.5t-20.5 51.5q0 39 42 130.5t42 138.5q0 18 -13.5 30t-31.5 12q-31 0 -79 -45.5t-96 -125.5l-64 -202h-78z" />
    <glyph glyph-name="f_j" unicode="fj" horiz-adv-x="500" 
d="M-106 -316q-43 0 -67.5 23.5t-24.5 60.5q0 24 15 42.5t34 18.5q40 0 40 -33q0 -12 -9 -30.5t-9 -25.5q0 -32 28 -32q35 0 52 33t59 163q24 76 69 260.5t63 247.5h-104q-1 0 0.5 6t4 11.5t3.5 5.5h103q12 41 17 56q37 115 96 183.5t129 68.5q53 0 83 -34t30 -86
q0 -24 -15.5 -44t-34.5 -20q-42 0 -42 38q0 16 16 37t16 35q0 28 -14.5 39t-44.5 11q-34 0 -65 -42.5t-71 -168.5q-9 -29 -21 -73h144q61 0 80 19q1 1 4.5 0.5t6.5 -2.5t3 -3l-170 -528q-36 -109 -98 -173t-131 -64q-57 0 -91 31q-37 -31 -84 -31zM63 -291q45 0 80 39.5
t74 163.5l158 500h-152q-13 -49 -41.5 -158t-49.5 -185.5t-37 -125.5q-53 -158 -99 -210q27 -24 67 -24z" />
    <glyph glyph-name="f_k" unicode="fk" horiz-adv-x="721" 
d="M462 694q-18 15 -31 20t-36 5q-35 0 -70.5 -43t-74.5 -168q-3 -10 -20 -73h152zM375 411h-153q-13 -47 -41.5 -157.5t-49.5 -186t-37 -124.5q-42 -130 -86 -194.5t-114 -64.5q-43 0 -68 23.5t-25 60.5q0 24 15 42.5t35 18.5q40 0 40 -33q0 -12 -9 -30.5t-9 -25.5
q0 -32 27 -32q35 0 52.5 33.5t58.5 162.5q24 77 70.5 264t61.5 243h-103q-1 0 0.5 6t3.5 12t3 6h104q5 22 16 56q37 114 99.5 183t134.5 69q42 0 71 -25q13 0 23.5 1.5t16.5 3t11.5 5t7.5 5t6 6.5l4 5q4 4 13 -2q2 -2 2 -3l-149 -476q34 2 61 20.5t44.5 43.5t34.5 49
t39.5 41t49.5 17q62 0 62 -54q0 -22 -14 -40.5t-35 -18.5q-35 0 -35 29q0 9 5.5 17.5t5.5 13.5q0 13 -18 13q-19 0 -37.5 -22.5t-43 -56.5t-49.5 -52q29 -15 43 -45.5t16.5 -62.5t6 -62.5t19.5 -49.5t50 -19q22 0 34 12t12 31q0 14 -23 27t-23 32q0 14 11 25t29 11
q20 0 33.5 -17t13.5 -35q0 -52 -33 -85.5t-91 -33.5q-44 0 -70.5 26t-36.5 63t-17 73.5t-18.5 61.5t-33.5 23l-75 -238h-79z" />
    <glyph glyph-name="f_f_b" unicode="ffb" horiz-adv-x="960" 
d="M678 694q-32 25 -68 25q-20 0 -34.5 -7t-32.5 -28t-37 -64.5t-40 -111.5q-9 -29 -21 -73h152zM480 674q-24 44 -81 44q-31 0 -51.5 -13.5t-45 -60t-52.5 -136.5q-3 -10 -20 -73h136q14 47 17 56q41 128 97 183zM359 411h-136q-15 -55 -42.5 -159.5t-49 -182t-37.5 -126.5
q-47 -143 -107 -206q26 -29 74 -29q32 0 53 12t46.5 57.5t53.5 133.5q43 136 145 500zM590 411h-152q-50 -184 -144 -472q-38 -115 -97.5 -185t-129.5 -70q-66 0 -100 35q-24 -20 -40 -27.5t-40 -7.5q-42 0 -63.5 23t-21.5 60q0 25 15 43.5t34 18.5q40 0 40 -34
q0 -11 -9 -29.5t-9 -25.5q0 -32 27 -32q35 0 52.5 33.5t58.5 162.5q24 78 70.5 265.5t61.5 241.5h-103q-1 0 0.5 6t4 12t3.5 6h103q3 9 8 27t8 29q38 115 97 183.5t129 68.5q74 0 105 -49q56 49 118 49q43 0 72 -25q13 0 23 1.5t16 3t11.5 5t7.5 5.5l6 6l5 5q1 2 8 -0.5
t7 -4.5l-121 -388q16 38 51 62.5t69 24.5q63 0 103.5 -39.5t40.5 -106.5q0 -114 -92.5 -205.5t-198.5 -91.5q-73 0 -103.5 48.5t-5.5 126.5zM842 316q0 47 -16 70t-58 23q-43 0 -80.5 -40.5t-65.5 -112.5l-47 -143q-13 -43 2 -69t49 -26q47 0 77.5 16.5t59.5 55.5
q27 37 53 107.5t26 118.5z" />
    <glyph glyph-name="f_f_h" unicode="ffh" horiz-adv-x="969" 
d="M678 694q-32 25 -68 25q-20 0 -34.5 -7t-32.5 -28t-37 -64.5t-40 -111.5q-9 -29 -21 -73h152zM480 674q-24 44 -81 44q-31 0 -51.5 -13.5t-45 -60t-52.5 -136.5q-3 -10 -20 -73h136q14 47 17 56q41 128 97 183zM359 411h-136q-15 -55 -42.5 -159.5t-49 -182t-37.5 -126.5
q-47 -143 -107 -206q26 -29 74 -29q32 0 53 12t46.5 57.5t53.5 133.5q43 136 145 500zM590 411h-152q-50 -184 -144 -472q-38 -115 -97.5 -185t-129.5 -70q-66 0 -100 35q-24 -20 -40 -27.5t-40 -7.5q-42 0 -63.5 23t-21.5 60q0 25 15 43.5t34 18.5q40 0 40 -34
q0 -11 -9 -29.5t-9 -25.5q0 -32 27 -32q35 0 52.5 33.5t58.5 162.5q24 78 70.5 265.5t61.5 241.5h-103q-1 0 0.5 6t4 12t3.5 6h103q3 9 8 27t8 29q38 115 97 183.5t129 68.5q74 0 105 -49q56 49 118 49q43 0 72 -25q13 0 23 1.5t16 3t11.5 5t7.5 5.5l6 6l5 5q1 2 8 -0.5
t7 -4.5l-148 -470q41 75 102.5 120t109.5 45q26 0 47.5 -19.5t21.5 -59.5q0 -45 -43.5 -148t-43.5 -133q0 -39 30 -39q24 0 42.5 15t38.5 50l23 -9q-25 -49 -63 -74.5t-70 -25.5q-39 0 -59.5 19.5t-20.5 51.5q0 39 42 130.5t42 138.5q0 18 -13.5 30t-31.5 12
q-31 0 -79 -45.5t-96 -125.5l-64 -202h-78z" />
    <glyph glyph-name="f_f_j" unicode="ffj" horiz-adv-x="715" 
d="M66 -316q-67 0 -99 35q-25 -20 -40.5 -27.5t-40.5 -7.5q-42 0 -63.5 23t-21.5 61q0 24 15 42.5t34 18.5q40 0 40 -33q0 -12 -9 -30.5t-9 -25.5q0 -32 28 -32q35 0 52 33t59 163q24 76 69 260.5t63 247.5h-104q-1 0 0.5 6t4 11.5t3.5 5.5h103q12 41 17 56q37 114 99.5 183
t134.5 69q68 0 99 -46q51 46 108 46q53 0 83 -34t30 -86q0 -24 -16 -44t-35 -20q-42 0 -42 38q0 16 16 37t16 35q0 29 -14 39.5t-44 10.5q-22 0 -40 -13t-43.5 -62t-53.5 -136q-4 -14 -10.5 -37t-10.5 -36h144q61 0 80 19q1 1 4.5 0.5t6.5 -2.5t3 -3l-170 -528
q-36 -109 -98 -173t-131 -64q-71 0 -112 45q-50 -45 -105 -45zM589 412h-152q-51 -190 -144 -473q-42 -127 -104 -192q42 -38 88 -38q45 0 80 39.5t74 163.5zM358 412h-136q-13 -49 -41.5 -158t-49.5 -185.5t-37 -125.5q-48 -145 -110 -207q25 -27 77 -27q32 0 52.5 11.5
t46.5 57.5t54 134q51 162 144 500zM483 679q-17 21 -33 30t-44 9q-48 0 -81.5 -40.5t-74.5 -169.5q-9 -29 -21 -73h136q5 19 17 56q38 119 101 188z" />
    <glyph glyph-name="f_f_k" unicode="ffk" horiz-adv-x="937" 
d="M678 694q-32 25 -68 25q-20 0 -34.5 -7t-32.5 -28t-37 -64.5t-40 -111.5q-9 -29 -21 -73h152zM480 674q-24 44 -81 44q-31 0 -51.5 -13.5t-45 -60t-52.5 -136.5q-3 -10 -20 -73h136q14 47 17 56q41 128 97 183zM359 411h-136q-15 -55 -42.5 -159.5t-49 -182t-37.5 -126.5
q-47 -143 -107 -206q26 -29 74 -29q32 0 53 12t46.5 57.5t53.5 133.5q43 136 145 500zM590 411h-152q-50 -184 -144 -472q-38 -115 -97.5 -185t-129.5 -70q-66 0 -100 35q-24 -20 -40 -27.5t-40 -7.5q-42 0 -63.5 23t-21.5 60q0 25 15 43.5t34 18.5q40 0 40 -34
q0 -11 -9 -29.5t-9 -25.5q0 -32 27 -32q35 0 52.5 33.5t58.5 162.5q24 78 70.5 265.5t61.5 241.5h-103q-1 0 0.5 6t4 12t3.5 6h103q3 9 8 27t8 29q38 115 97 183.5t129 68.5q74 0 105 -49q56 49 118 49q43 0 72 -25q13 0 23 1.5t16 3t11.5 5t7.5 5.5l6 6l5 5q1 2 8 -0.5
t7 -4.5l-149 -476q34 2 61 20.5t44.5 43.5t34.5 49t39.5 41t49.5 17q62 0 62 -54q0 -22 -14 -40.5t-35 -18.5q-35 0 -35 29q0 9 5.5 17.5t5.5 13.5q0 13 -18 13q-19 0 -37.5 -22.5t-43 -56.5t-49.5 -52q29 -15 43 -45.5t16.5 -62.5t6 -62.5t19.5 -49.5t50 -19q22 0 34 12
t12 31q0 14 -23 27t-23 32q0 14 11 25t29 11q20 0 33.5 -17t13.5 -35q0 -52 -33 -85.5t-91 -33.5q-44 0 -70.5 26t-36.5 63t-17 73.5t-18.5 61.5t-33.5 23l-75 -238h-79z" />
    <glyph glyph-name=".notdef" horiz-adv-x="500" 
d="M0 -200v1000h500v-1000h-500zM71 750l179 -390l179 390h-358zM50 -76l172 376l-172 376v-752zM450 676l-172 -376l172 -376v752zM250 240l-179 -390h358z" />
    <glyph glyph-name=".null" horiz-adv-x="0" 
 />
    <glyph glyph-name="nonmarkingreturn" horiz-adv-x="333" 
 />
    <glyph glyph-name="space" unicode=" " horiz-adv-x="200" 
 />
    <glyph glyph-name="exclam" unicode="!" horiz-adv-x="276" 
d="M321 688q0 -22 -37.5 -113.5t-89 -214.5t-74.5 -196q-3 -6 -20 -3q-4 1 -5 3q31 101 70.5 286t47.5 210q21 66 71 66q18 0 27.5 -10.5t9.5 -27.5zM116 52q0 -26 -18.5 -45.5t-42.5 -19.5q-17 0 -27.5 11t-10.5 29q0 26 18.5 45.5t42.5 19.5q17 0 27.5 -11t10.5 -29z" />
    <glyph glyph-name="quotedbl" unicode="&#x22;" horiz-adv-x="331" 
d="M382 689q0 -7 -1.5 -15.5t-5 -19t-7 -20t-10 -23.5t-11 -23t-12 -24.5t-11.5 -23t-12.5 -23.5t-10.5 -21q-3 -10 -4 -10q-3 -8 -17 -5q-5 3 -5 5l2 11q22 149 37 196q4 13 13.5 23t21.5 10q33 0 33 -37zM232 689q0 -7 -1.5 -15.5t-5 -19t-7 -20t-10 -23.5t-11 -23
t-12 -24.5t-11.5 -23t-12.5 -23.5t-10.5 -21q-3 -10 -4 -10q-3 -8 -17 -5q-5 3 -5 5l2 11q22 149 37 196q4 13 13.5 23t21.5 10q33 0 33 -37z" />
    <glyph glyph-name="numbersign" unicode="#" horiz-adv-x="452" 
d="M437 297h-107l-36 -147h100q2 0 2 -12t-2 -12h-107l-43 -169q-1 -1 -6 -1t-10 1t-5 2l43 167h-106l-42 -169q-1 -1 -11.5 -0.5t-10.5 2.5l43 167h-88q-1 0 -1 12t1 12h96l34 147h-86q-1 0 -1 12t1 12h93l38 148q1 1 11 0.5t10 -2.5l-37 -146h104l38 148q1 1 6 1t10 -1
t5 -2l-36 -146h100q1 0 1 -12t-1 -12zM309 297h-105l-37 -147h106z" />
    <glyph glyph-name="dollar" unicode="$" horiz-adv-x="528" 
d="M563 587q0 -49 -25 -77.5t-61 -28.5q-19 0 -31 11t-12 29q0 42 33 42q10 0 23 -7t26 -7q22 0 22 49q0 27 -20.5 55.5t-58.5 41.5l-95 -300q40 -45 62 -85.5t22 -92.5q0 -91 -54.5 -157.5t-158.5 -75.5l-29 -91q0 -1 -6.5 0t-12.5 3t-6 3l26 84h-2q-27 0 -46 4l-30 -94
q0 -1 -6.5 0t-12.5 3t-6 3q29 93 29 94q-53 15 -84 50t-31 75q0 51 27 80t69 29q21 0 35.5 -13t14.5 -34q0 -45 -37 -45q-11 0 -26 7.5t-29 7.5q-23 0 -23 -41q0 -33 24.5 -58t66.5 -36l109 345q-60 73 -60 149q0 82 47 141.5t128 72.5l27 87q0 1 6.5 0t12.5 -3t6 -3
l-24 -77h14q18 0 35 -3l27 86q0 1 6.5 0t12.5 -3t6 -3l-27 -86q45 -15 71 -50.5t26 -80.5zM380 161q0 57 -53 117q-84 -269 -85 -269q138 14 138 152zM307 299l-38 39l-25 -82l-52 -164l-26 -82q20 -3 43 -3h5zM434 701q-18 2 -28 2q-15 0 -22 -1l-19 -61q-19 -61 -39 -122
l-19 -61l37 -41zM356 698q-54 -10 -79.5 -42.5t-25.5 -73.5q0 -48 36 -101z" />
    <glyph glyph-name="percent" unicode="%" horiz-adv-x="684" 
d="M368 587q0 -82 -60.5 -155.5t-144.5 -73.5q-47 0 -77 34t-30 92q0 82 61 155.5t146 73.5q46 0 75.5 -34t29.5 -92zM564 725l-403 -749q0 -1 -5 2t-9 6.5t-4 4.5l401 749q0 1 5.5 -2t10 -6.5t4.5 -4.5zM650 220q0 -82 -61 -155.5t-146 -73.5q-46 0 -75.5 34t-29.5 92
q0 82 60.5 155.5t144.5 73.5q47 0 77 -34t30 -92zM306 621q0 37 -11 52.5t-38 15.5q-35 0 -58 -18q-39 -30 -59.5 -97.5t-20.5 -123.5q0 -37 11 -52.5t38 -15.5q36 0 58 18q39 30 59.5 98t20.5 123zM588 254q0 37 -11 52.5t-38 15.5q-35 0 -58 -18q-39 -30 -60 -98t-21 -123
q0 -36 11.5 -52t38.5 -16q35 0 58 18q39 30 59.5 97.5t20.5 123.5z" />
    <glyph glyph-name="ampersand" unicode="&#x26;" horiz-adv-x="746" 
d="M731 331q0 -19 -12.5 -32t-35.5 -13q-18 0 -27 9t-11 19.5t-9.5 19.5t-23.5 9q-23 0 -45.5 -30t-51 -86t-47.5 -82q28 -57 69 -85.5t82 -28.5q61 0 84 65q0 1 4 0t8.5 -2t7.5 -3t3 -3q-11 -40 -59.5 -72.5t-112.5 -32.5q-56 0 -88.5 16.5t-63.5 53.5q-80 -70 -193 -70
q-74 0 -123.5 49t-49.5 128q0 91 66 171t186 123q0 121 57 196.5t134 75.5q36 0 55 -20t19 -52q0 -44 -44.5 -89.5t-122.5 -83.5q-1 -162 72 -314q16 23 42 70.5t44.5 79t47.5 57.5t60 26q37 0 58 -19.5t21 -49.5zM529 661q0 37 -38 37q-50 0 -76.5 -56t-28.5 -135
q73 36 108 72.5t35 81.5zM389 70q-101 149 -102 358q-84 -29 -122.5 -81t-38.5 -137q0 -87 40 -140t107 -53q58 0 116 53z" />
    <glyph glyph-name="quotesingle" unicode="'" horiz-adv-x="181" 
d="M232 689q0 -7 -1.5 -15.5t-5 -19t-7 -20t-10 -23.5t-11 -23t-12 -24.5t-11.5 -23t-12.5 -23.5t-10.5 -21q-3 -10 -4 -10q-3 -8 -17 -5q-5 3 -5 5l2 11q22 149 37 196q4 13 13.5 23t21.5 10q33 0 33 -37z" />
    <glyph glyph-name="parenleft" unicode="(" horiz-adv-x="297" 
d="M467 719q-130 -74 -187 -177q-65 -117 -128.5 -313t-63.5 -266q0 -73 16.5 -115.5t59.5 -77.5l-1 -2q-1 -2 -3 -4l-4 -4t-3.5 -3t-2.5 -1q-116 101 -116 299q0 209 123 395.5t303 287.5q1 0 3 -4.5t3.5 -9.5t0.5 -5z" />
    <glyph glyph-name="parenright" unicode=")" horiz-adv-x="297" 
d="M243 440q0 -209 -123 -395.5t-303 -287.5q-1 0 -3 4.5t-3.5 9.5t-0.5 5q130 74 187 177q65 117 128.5 313t63.5 266q0 73 -16.5 115.5t-59.5 77.5l3 4q3 4 6.5 7t4.5 3q116 -101 116 -299z" />
    <glyph glyph-name="asterisk" unicode="*" horiz-adv-x="290" 
d="M345 630q-2 -11 -13 -14q-8 -3 -31 -3.5t-53 -11.5l-4 -2l3 -3q24 -20 45 -27.5t28 -13.5q9 -9 7 -18t-9.5 -15t-16.5 -5q-6 2 -9 4q-6 5 -17.5 24t-36.5 40l-5 4l-1 -6q-6 -32 -2.5 -53.5t1.5 -30.5q-4 -20 -25 -16t-18 24q2 7 13 27.5t17 52.5l1 6l-6 -2
q-30 -11 -48.5 -25.5t-25.5 -17.5q-3 -1 -11 -1q-9 2 -14 10.5t-3 16.5q4 12 13 15q8 3 31 3.5t53 11.5l5 2l-3 3q-25 20 -45.5 27.5t-27.5 13.5q-9 7 -7 18q2 9 9 15t16 5q6 -2 10 -4q6 -5 17.5 -24t36.5 -40l5 -5l1 7q6 31 2.5 53t-2.5 30q1 9 8.5 14t16.5 3q21 -4 18 -24
q-1 -8 -12.5 -28t-16.5 -52l-1 -6l6 2q30 11 48 25.5t25 17.5q4 1 11 1q9 -2 14 -10.5t3 -17.5z" />
    <glyph glyph-name="plus" unicode="+" horiz-adv-x="401" 
d="M338 196h-122v-139q0 -1 -15.5 -1t-15.5 1v139h-130q-1 0 -1 16.5t1 16.5h130v148q0 1 15.5 1t15.5 -1v-148h122q2 0 2 -16.5t-2 -16.5z" />
    <glyph glyph-name="comma" unicode="," horiz-adv-x="196" 
d="M121 41q0 -54 -57.5 -112.5t-137.5 -74.5q-1 0 -1 6t0.5 12.5t1.5 6.5q19 4 41 13q24 11 35 17.5t23 21.5t12 35q0 14 -9 33t-9 35q0 26 14.5 42.5t40.5 16.5q23 0 34.5 -15.5t11.5 -36.5z" />
    <glyph glyph-name="hyphen" unicode="-" horiz-adv-x="322" 
d="M295 267q-15 -22 -18 -61h-250q-2 0 0 4q15 22 18 61h250q4 0 0 -4z" />
    <glyph glyph-name="period" unicode="." horiz-adv-x="196" 
d="M120 52q0 -26 -18.5 -45.5t-42.5 -19.5q-17 0 -27.5 11t-10.5 29q0 26 18.5 46t42.5 20q17 0 27.5 -11.5t10.5 -29.5z" />
    <glyph glyph-name="slash" unicode="/" horiz-adv-x="328" 
d="M388 754l-318 -777l-18 7q-2 1 -1 2l316 777q0 1 5.5 -1t10.5 -4.5t5 -3.5z" />
    <glyph glyph-name="zero" unicode="0" horiz-adv-x="550" 
d="M486 267q0 -106 -86 -191t-187 -85q-69 0 -119 47.5t-50 120.5q0 106 85.5 191t187.5 85q69 0 119 -47.5t50 -120.5zM420 308q0 46 -25.5 74.5t-79.5 28.5q-53 0 -81.5 -18t-53.5 -57q-20 -31 -45 -105.5t-25 -112.5q0 -45 25.5 -74t78.5 -29t82 18t54 57q20 31 45 105.5
t25 112.5z" />
    <glyph glyph-name="one" unicode="1" horiz-adv-x="365" 
d="M349 426q1 0 -0.5 -6t-3.5 -12t-3 -6h-65q-7 0 -7 -4l-117 -370q-1 -2 0.5 -3t4.5 -1h64q1 0 0 -6t-3.5 -12t-3.5 -6h-221q-1 0 0.5 6t4 12t3.5 6h64q7 0 8 4l117 370q0 4 -6 4h-64q-1 0 0.5 6t3.5 12t3 6h221z" />
    <glyph glyph-name="two" unicode="2" horiz-adv-x="443" 
d="M388 130l-41 -127q0 -3 -3 -3h-392q-2 0 -2.5 4t0 8.5t3.5 5.5q167 59 251.5 143t84.5 166q0 77 -79 77q-38 0 -60 -24.5t-22 -52.5q0 -14 2.5 -17.5t14.5 -3.5q11 0 20 5t18 5q27 0 27 -34q0 -15 -11 -25t-26 -10q-74 0 -74 71q0 45 40.5 81t97.5 36q59 0 96 -31t37 -85
q0 -123 -255 -251q-7 -4 3 -4h158q38 0 57 16t30 50q0 2 12.5 2t12.5 -2z" />
    <glyph glyph-name="three" unicode="3" horiz-adv-x="405" 
d="M344 323q0 -55 -61 -116t-130 -87q16 4 31 4q52 0 81.5 -33t29.5 -92q0 -80 -48.5 -148t-116.5 -103t-132 -35q-55 0 -87.5 26.5t-32.5 66.5q0 44 28 73.5t74 29.5q19 0 32 -12t13 -31q0 -41 -33 -41q-10 0 -23 7t-26 7q-14 0 -23 -11t-9 -28q0 -25 22 -44t67 -19
q207 0 207 288q0 36 -17 52.5t-41 16.5q-38 0 -84 -25q-2 -1 -5.5 3t-6 8t-1.5 5q108 50 159 110t51 137q0 34 -20 53.5t-55 19.5q-41 0 -62 -22t-21 -45q0 -31 15 -31q11 0 19.5 5t17.5 5q28 0 28 -34q0 -15 -11 -25t-27 -10q-30 0 -50.5 24t-20.5 58q0 41 36.5 73
t102.5 32q40 0 67.5 -11t40 -30t17.5 -36t5 -35z" />
    <glyph glyph-name="four" unicode="4" horiz-adv-x="455" 
d="M515 539l-521 -515h228l37 117q51 5 83 90q0 2 12.5 2t12.5 -2l-66 -207h105q1 0 -0.5 -6t-4 -12t-3.5 -6h-104l-87 -278h-79l87 278h-249q-2 0 -5.5 8t-1.5 10q46 45 103 116l295 358q25 -11 70 9.5t73 50.5q0 1 4 -2t8 -7z" />
    <glyph glyph-name="five" unicode="5" horiz-adv-x="429" 
d="M411 418q0 -36 -38.5 -57t-107.5 -21q-36 0 -69 13t-45 31l-60 -267q36 44 101 44q62 0 101 -38.5t39 -100.5q0 -59 -30 -117t-76 -99.5t-103 -67t-110 -25.5q-56 0 -88 26.5t-32 66.5q0 44 28 73.5t74 29.5q18 0 31.5 -12.5t13.5 -30.5q0 -19 -9.5 -30t-23.5 -11
q-11 0 -23.5 7t-25.5 7t-23 -11.5t-10 -27.5q0 -24 22.5 -43.5t67.5 -19.5q112 0 171 85.5t59 235.5q0 38 -18 57t-49 19q-60 0 -94 -57q-5 -10 -7 -21.5t-3 -14.5q-1 -4 -18 -4q-4 0 -9.5 3.5t-3.5 8.5q1 3 6.5 14.5t6.5 15.5l76 334q1 3 1 4.5t0.5 2.5t0.5 2t8 5.5t9 3.5
q24 -35 75 -35q36 0 68.5 13.5t54.5 27t33 13.5q18 0 23.5 -7.5t5.5 -24.5z" />
    <glyph glyph-name="six" unicode="6" horiz-adv-x="508" 
d="M548 618q0 -32 -30 -56t-65 -24q-18 0 -31.5 12t-13.5 30q0 20 9.5 30.5t23.5 10.5q11 0 24 -7t26 -7q11 0 18.5 8.5t7.5 22.5q0 51 -73 51q-62 0 -116 -50t-91.5 -126.5t-66.5 -178.5q45 67 126 67q64 0 109 -44t45 -111q0 -98 -77 -176t-170 -78q-63 0 -108 42t-45 126
q0 113 62.5 244t156.5 220t177 89q50 0 76 -25.5t26 -69.5zM381 289q0 88 -91 88q-41 0 -75.5 -26t-54.5 -64q-41 -76 -41 -192q0 -79 81 -79q49 0 74 15t53 57q17 27 35.5 95.5t18.5 105.5z" />
    <glyph glyph-name="seven" unicode="7" horiz-adv-x="452" 
d="M463 427q1 0 1 -3t-0.5 -7t-1.5 -5q-46 -48 -104 -144l-326 -545h-98l466 645h-206q-43 0 -63 -25.5t-37 -80.5q0 -1 -6.5 -1.5t-12.5 0t-6 1.5l51 162q2 3 4 3h339z" />
    <glyph glyph-name="eight" unicode="8" horiz-adv-x="503" 
d="M522 575q0 -58 -46 -104t-137 -86q27 -33 42 -54.5t28 -56.5t13 -72q0 -94 -65.5 -152.5t-162.5 -58.5q-66 0 -110.5 41t-44.5 98q0 145 221 237q-69 72 -69 153q0 85 53.5 139t139.5 54q60 0 99 -43.5t39 -94.5zM464 597q0 41 -21.5 66.5t-66.5 25.5q-127 0 -127 -124
q0 -49 17.5 -83.5t56.5 -81.5q141 59 141 197zM355 181q0 72 -81 167q-40 -17 -64 -30t-50.5 -38t-39 -62t-12.5 -89q0 -57 26.5 -85.5t73.5 -28.5q68 0 107.5 41.5t39.5 124.5z" />
    <glyph glyph-name="nine" unicode="9" horiz-adv-x="511" 
d="M449 267q0 -85 -38 -184.5t-95.5 -180.5t-129 -135t-133.5 -54q-53 0 -81 23t-28 64q0 37 27 65.5t68 28.5q18 0 31.5 -12t13.5 -30q0 -20 -9.5 -30.5t-23.5 -10.5q-11 0 -21 7.5t-24 7.5q-13 0 -21.5 -11.5t-8.5 -30.5q0 -21 20.5 -34t58.5 -13q53 0 111 57.5
t98.5 133.5t60.5 148q-21 -31 -56 -49t-72 -18q-63 0 -108 44t-45 111q0 99 80 185t172 86q63 0 108 -42t45 -126zM386 328q0 83 -87 83q-46 0 -73 -15.5t-49 -49.5q-19 -28 -46 -112t-27 -119q0 -32 25 -57t75 -25q36 0 73.5 25.5t60.5 70.5q15 28 31.5 95.5t16.5 103.5z
" />
    <glyph glyph-name="colon" unicode=":" horiz-adv-x="261" 
d="M209 344q0 -26 -18.5 -45.5t-42.5 -19.5q-17 0 -27.5 11t-10.5 29q0 26 18.5 46t42.5 20q17 0 27.5 -11.5t10.5 -29.5zM120 52q0 -26 -18.5 -45.5t-42.5 -19.5q-17 0 -27.5 11t-10.5 29q0 26 18.5 46t42.5 20q17 0 27.5 -11.5t10.5 -29.5z" />
    <glyph glyph-name="semicolon" unicode=";" horiz-adv-x="261" 
d="M209 344q0 -26 -18.5 -45.5t-42.5 -19.5q-17 0 -27.5 11t-10.5 29q0 26 18.5 46t42.5 20q17 0 27.5 -11.5t10.5 -29.5zM121 41q0 -54 -57.5 -112.5t-137.5 -74.5q-1 0 -1 6t0.5 12.5t1.5 6.5q19 4 41 13q24 11 35 17.5t23 21.5t12 35q0 14 -9 33t-9 35q0 26 14.5 42.5
t40.5 16.5q23 0 34.5 -15.5t11.5 -36.5z" />
    <glyph glyph-name="less" unicode="&#x3c;" horiz-adv-x="330" 
d="M276 96q4 -2 -8 -20l-3 -3l-213 133v15l213 133q1 0 4 -5.5t5.5 -11.5t1.5 -6l-183 -118z" />
    <glyph glyph-name="equal" unicode="=" horiz-adv-x="361" 
d="M305 260h-247q-1 0 -1 12t1 12h247v-24zM305 141h-247q-1 0 -1 11.5t1 11.5h247v-23z" />
    <glyph glyph-name="greater" unicode="&#x3e;" horiz-adv-x="330" 
d="M286 205l-213 -133q-1 0 -4 5.5t-5.5 11.5t-1.5 6l183 118l-183 117q-4 2 8 20q2 4 3 3l213 -133v-15z" />
    <glyph glyph-name="question" unicode="?" horiz-adv-x="456" 
d="M480 556q0 -104 -72.5 -176.5t-169.5 -72.5q-22 0 -40.5 8t-23.5 18l-53 -169q-3 -6 -20 -3q-4 1 -5 3l57 193q1 1 1 3v2q1 3 12.5 6t12.5 -1q4 -15 18 -25t35 -10q50 0 74.5 12.5t42.5 43.5q17 30 42 111t25 115q0 42 -25.5 64.5t-66.5 22.5q-49 0 -68 -15.5t-19 -54.5
q0 -15 6.5 -28t6.5 -24q0 -17 -12 -27.5t-35 -10.5q-21 0 -34.5 15t-13.5 36q0 47 48 90t118 43q67 0 113 -50t46 -119zM116 52q0 -26 -18.5 -45.5t-42.5 -19.5q-17 0 -27.5 11t-10.5 29q0 26 18.5 45.5t42.5 19.5q17 0 27.5 -11t10.5 -29z" />
    <glyph glyph-name="at" unicode="@" horiz-adv-x="756" 
d="M715 403q0 -56 -19.5 -101t-50.5 -71.5t-66.5 -40.5t-71.5 -14q-51 0 -69 29t-6 72q-17 -51 -48.5 -76t-61.5 -25q-48 0 -71 37t-23 90q0 81 60.5 155t138.5 74q20 0 37.5 -12t21.5 -32l10 36h61l-45 -159q-15 -54 -21 -80t-6 -47t9 -27.5t29 -6.5q70 0 119 53.5
t49 143.5q0 142 -79 221.5t-200 79.5q-127 0 -216.5 -100.5t-89.5 -247.5q0 -146 89.5 -247.5t216.5 -101.5q109 0 194 79q1 0 5 -4t6.5 -8.5t1.5 -5.5q-91 -83 -207 -83q-137 0 -233.5 108.5t-96.5 262.5t96.5 263t233.5 109q129 0 216 -87t87 -236zM471 441q6 29 -6 48.5
t-41 19.5q-28 0 -56 -25q-37 -33 -61 -100.5t-24 -120.5q0 -61 46 -61q28 0 55.5 30t42 62t23.5 62z" />
    <glyph glyph-name="A" unicode="A" horiz-adv-x="621" 
d="M570 0h-286q-1 0 0.5 6t4 12t3.5 6h72q7 0 7 3v208h-235l-119 -169q-27 -38 -18 -41q3 -1 7 -1h75q1 0 -0.5 -6t-4 -12t-3.5 -6h-202q-1 0 0.5 6t3.5 12t3 6h54q24 0 53 41l463 658q1 2 7.5 2.5t12.5 -0.5t6 -2v-696q0 -3 7 -3h97q1 0 -0.5 -6t-4 -12t-3.5 -6zM371 260
v306l-216 -306h216z" />
    <glyph glyph-name="B" unicode="B" horiz-adv-x="618" 
d="M602 555q0 -73 -62.5 -123.5t-158.5 -52.5q81 -2 127 -45t46 -115q0 -88 -89.5 -153.5t-220.5 -65.5h-300q-1 0 0.5 6t4 12t3.5 6h90q6 0 7 3l206 654q1 1 -0.5 2t-4.5 1h-90q-1 0 0.5 6t4 12t3.5 6h230q98 0 151 -40t53 -113zM453 283q0 38 -34.5 60.5t-92.5 22.5h-60
l-107 -339q-1 -1 0.5 -2t4.5 -1h87q57 0 89.5 12t54.5 45q25 36 41.5 92.5t16.5 109.5zM515 598q0 48 -26 67t-87 19h-30q-7 0 -7 -3l-92 -290h57q96 0 133 57q52 79 52 150z" />
    <glyph glyph-name="C" unicode="C" horiz-adv-x="605" 
d="M664 723l-63 -198q0 -2 -12.5 -2t-12.5 2q23 72 -15 124t-109 52q-65 0 -106 -24t-73 -75q-38 -63 -90.5 -215t-52.5 -233q0 -76 36.5 -111.5t112.5 -35.5q78 0 139.5 37t116.5 116q1 1 5.5 -3t9 -8.5t3.5 -4.5q-113 -161 -274 -161q-108 0 -169 70.5t-61 195.5
q0 118 55.5 228.5t149.5 179.5t198 69q34 0 74.5 -15t61.5 -15q25 0 34.5 6.5t16.5 20.5q1 1 13 1t12 -1z" />
    <glyph glyph-name="D" unicode="D" horiz-adv-x="721" 
d="M702 436q0 -111 -67 -213t-170.5 -162.5t-208.5 -60.5h-312q-1 0 0.5 6t4 12t3.5 6h90q6 0 7 3l206 654q1 1 -0.5 2t-4.5 1h-90q-1 0 0.5 6t4 12t3.5 6h274q109 0 184.5 -77.5t75.5 -194.5zM614 535q0 64 -42.5 106.5t-136.5 42.5h-63q-7 0 -7 -3l-206 -654q-1 -1 0.5 -2
t4.5 -1h87q168 0 243 115q36 55 78 186t42 210z" />
    <glyph glyph-name="E" unicode="E" 
d="M656 705l-51 -178q0 -1 -12.5 -1t-12.5 1q24 76 -3.5 116.5t-106.5 40.5h-98q-6 0 -8 -3l-92 -296h33q61 0 89.5 20.5t45.5 73.5q1 1 13 1t12 -1l-73 -233q0 -2 -12.5 -2t-12.5 2q37 116 -70 116h-33l-106 -335q0 -3 6 -3h86q86 0 143.5 24t86 60t45.5 92q0 1 6.5 1.5
t12.5 0t6 -1.5l-62 -197q-2 -3 -4 -3h-540q-1 0 0.5 6t4 12t3.5 6h89q7 0 8 3l206 654q1 1 -0.5 2t-4.5 1h-90q-1 0 0.5 6t3.5 12t3 6h487q2 0 2 -3z" />
    <glyph glyph-name="F" unicode="F" horiz-adv-x="570" 
d="M657 708l-50 -178q-1 -2 -13 -2t-12 2q24 76 -4 116.5t-107 40.5h-98q-6 0 -8 -4l-92 -295h47q61 0 90 20.5t45 72.5q0 1 6.5 1.5t12.5 0t6 -1.5l-72 -232q0 -1 -6.5 -2t-12.5 0t-6 2q37 115 -70 115h-48l-106 -334q0 -4 6 -4h96q1 0 0 -6t-3.5 -12t-3.5 -6h-309
q-1 0 0.5 6t4 12t3.5 6h89q7 0 8 4l206 653q1 2 -0.5 3t-4.5 1h-90q-1 0 0.5 6t3.5 12t3 6h487q2 0 2 -3z" />
    <glyph glyph-name="G" unicode="G" horiz-adv-x="651" 
d="M685 292q1 0 -0.5 -6t-4 -12t-3.5 -6h-90q-5 0 -7 -3l-85 -269q-2 -3 -22 -1q-5 1 -5 2q5 22 -0.5 31.5t-26.5 9.5q-14 0 -33.5 -14t-52 -27.5t-76.5 -13.5q-108 0 -169 70t-61 194q0 118 58.5 229t155 179.5t200.5 68.5q36 0 74 -15t51 -15q25 0 34.5 6.5t16.5 20.5
q1 1 13 1t12 -1l-63 -198q0 -2 -12.5 -2t-12.5 2q24 73 -9.5 124.5t-103.5 51.5q-128 0 -190 -99q-38 -63 -90.5 -215t-52.5 -233q0 -77 36.5 -111t112.5 -34q60 0 93.5 26t50.5 80l47 152q1 1 -0.5 2t-4.5 1h-90q-1 0 0.5 6t4 12t3.5 6h302z" />
    <glyph glyph-name="H" unicode="H" horiz-adv-x="755" 
d="M840 709q1 0 0 -6t-3.5 -12t-3.5 -6h-90q-7 0 -7 -4l-206 -653q-1 -2 0 -3t5 -1h90q1 0 -0.5 -6t-4 -12t-3.5 -6h-292q-1 0 0.5 6t3.5 12t3 6h81q6 0 7 4l104 329h-262l-103 -329q-1 -2 0.5 -3t4.5 -1h80q1 0 -0.5 -6t-4 -12t-3.5 -6h-292q-1 0 0.5 6t4 12t3.5 6h90
q6 0 7 4l206 653q1 2 -0.5 3t-4.5 1h-90q-1 0 0.5 6t4 12t3.5 6h292q1 0 -0.5 -6t-4 -12t-3.5 -6h-80q-7 0 -7 -4l-95 -300h261l95 300q1 2 -0.5 3t-4.5 1h-80q-1 0 0.5 6t3.5 12t3 6h292z" />
    <glyph glyph-name="I" unicode="I" horiz-adv-x="385" 
d="M470 709q1 0 -0.5 -6t-4 -12t-3.5 -6h-89q-6 0 -8 -4l-206 -653q-1 -2 0.5 -3t4.5 -1h90q1 0 -0.5 -6t-3.5 -12t-3 -6h-302q-1 0 0.5 6t3.5 12t3 6h90q7 0 8 4l206 653q0 4 -6 4h-89q-1 0 0 6t3.5 12t3.5 6h302z" />
    <glyph glyph-name="J" unicode="J" horiz-adv-x="545" 
d="M640 709q1 0 0 -6t-3.5 -12t-3.5 -6h-90q-6 0 -8 -4l-145 -459q-38 -121 -104 -180t-166 -59q-66 0 -103.5 43.5t-37.5 98.5q0 31 23 61t56 30q26 0 44 -19t18 -42q0 -20 -11.5 -39t-32.5 -23q-27 -6 -27 -37q0 -22 21 -36t57 -14q85 0 112 86l187 589q1 2 -0.5 3t-4.5 1
h-90q-1 0 0.5 6t3.5 12t3 6h302z" />
    <glyph glyph-name="K" unicode="K" horiz-adv-x="647" 
d="M742 709q1 0 0 -6t-3.5 -12t-3.5 -6h-66q-9 0 -57 -42l-259 -234l158 -381q2 -4 8 -4h92q1 0 -0.5 -6t-4 -12t-3.5 -6h-302q-1 0 0.5 6t4 12t3.5 6h77q4 0 4 4l-129 323l-102 -323q-1 -2 0.5 -3t4.5 -1h79q1 0 -0.5 -6t-3.5 -12t-3 -6h-292q-1 0 0.5 6t4 12t3.5 6h90
q6 0 7 4l206 653q1 2 -0.5 3t-4.5 1h-90q-1 0 0.5 6t4 12t3.5 6h291q1 0 -0.5 -6t-3.5 -12t-3 -6h-80q-7 0 -7 -4l-102 -324l313 286q34 29 30 40q-1 2 -5 2h-57q-1 0 0.5 6t3.5 12t3 6h191z" />
    <glyph glyph-name="L" unicode="L" horiz-adv-x="559" 
d="M512 201l-62 -198q0 -3 -3 -3h-503q-1 0 0.5 6t3.5 12t3 6h90q7 0 8 4l206 653q0 4 -6 4h-89q-1 0 0.5 6t3.5 12t3 6h302q1 0 -0.5 -6t-3.5 -12t-3 -6h-90q-6 0 -8 -4l-206 -653q-1 -2 0.5 -3t4.5 -1h49q125 0 186.5 45.5t88.5 131.5q0 1 6.5 1.5t12.5 0t6 -1.5z" />
    <glyph glyph-name="M" unicode="M" horiz-adv-x="870" 
d="M955 709q1 0 0 -6t-3.5 -12t-3.5 -6h-90q-7 0 -7 -4l-206 -653q-1 -2 0 -3t5 -1h90q1 0 -0.5 -6t-4 -12t-3.5 -6h-302q-1 0 0.5 6t4 12t3.5 6h90q6 0 7 4l199 629l-421 -670q-1 -2 -13.5 -2t-12.5 2l-7 679l-201 -638q-1 -2 0.5 -3t4.5 -1h79q1 0 -0.5 -6t-3.5 -12t-3 -6
h-197q-1 0 0.5 6t4 12t3.5 6h79q7 0 8 4l206 653q0 4 -6 4h-79q-1 0 0.5 6t4 12t3.5 6h194q9 0 11 -18l12 -519l326 518q11 19 19 19h210z" />
    <glyph glyph-name="N" unicode="N" horiz-adv-x="725" 
d="M806 709q1 0 -0.5 -6t-4 -12t-3.5 -6h-79q-6 0 -8 -4l-218 -694q-1 -2 -13 -2.5t-14 2.5l-196 661l-195 -620q-1 -2 0 -3t5 -1h79q1 0 -0.5 -6t-4 -12t-3.5 -6h-196q-1 0 0.5 6t3.5 12t3 6h80q7 0 7 4l206 653q1 2 -0.5 3t-4.5 1h-79q-1 0 0.5 6t3.5 12t3 6h180
q11 0 17 -18l147 -530l164 520q1 2 -0.5 3t-4.5 1h-80q-1 0 0.5 6t4 12t3.5 6h197z" />
    <glyph glyph-name="O" unicode="O" horiz-adv-x="701" 
d="M682 459q0 -118 -55.5 -228.5t-149.5 -179t-198 -68.5q-108 0 -169 70.5t-61 195.5q0 118 55.5 228.5t149.5 179.5t198 69q108 0 169 -71t61 -196zM601 554q0 73 -36 110t-113 37q-58 0 -99 -21.5t-76 -76.5q-39 -64 -93 -216t-54 -233q0 -147 149 -147q58 0 99 21.5
t75 76.5q40 64 94 216.5t54 232.5z" />
    <glyph glyph-name="P" unicode="P" horiz-adv-x="626" 
d="M649 534q0 -109 -89.5 -182.5t-228.5 -73.5q-42 0 -89 17l-84 -267q-1 -2 0.5 -3t4.5 -1h90q1 0 -0.5 -6t-3.5 -12t-3 -6h-302q-1 0 0.5 6t3.5 12t3 6h90q7 0 8 4l206 653q0 4 -6 4h-89q-1 0 0 6t3.5 12t3.5 6h249q233 0 233 -175zM553 596q0 49 -26 69t-92 20h-63
q-6 0 -8 -4l-114 -361q39 -18 89 -18q59 0 91.5 15t55.5 50q21 32 44 107.5t23 121.5z" />
    <glyph glyph-name="Q" unicode="Q" horiz-adv-x="701" 
d="M682 459q0 -135 -76 -253t-176 -178q-22 -13 -42.5 -24t-41 -20t-34.5 -15t-36 -12.5t-31 -9.5t-33.5 -10l-31.5 -9q46 2 81.5 -10t58 -33.5t41 -47.5t37 -52.5t39.5 -48.5t55.5 -36t78.5 -14q1 0 1 -12.5t-1 -12.5q-78 0 -138 18t-93 45.5t-61 59t-45.5 59t-42 45.5
t-53.5 18q-17 0 -34 -7.5t-18 -7.5q-4 0 -8.5 7t-4.5 15q0 2 5 5.5t15 7t20 4.5q30 12 175 53l-10 -1q-105 -10 -167 65t-62 202q0 118 55.5 228.5t149.5 179.5t198 69q108 0 169 -71t61 -196zM601 554q0 73 -36 110t-113 37q-58 0 -99 -21.5t-76 -76.5q-39 -64 -93 -216
t-54 -233q-1 -73 35 -110t113 -37q58 0 99.5 21.5t75.5 76.5q40 64 94 216.5t54 232.5z" />
    <glyph glyph-name="R" unicode="R" horiz-adv-x="639" 
d="M622 555q0 -75 -61.5 -129t-172.5 -58q160 0 160 -120q0 -30 -17.5 -94.5t-17.5 -84.5q0 -54 44 -54q43 0 61 15q1 0 4 -5.5t4.5 -11.5t0.5 -6q-45 -24 -107 -24q-115 0 -115 92q0 30 24.5 121.5t24.5 110.5q0 50 -129 50h-62l-104 -329q-1 -2 0.5 -3t4.5 -1h90
q1 0 -0.5 -6t-4 -12t-3.5 -6h-301q-1 0 0 6t3.5 12t3.5 6h90q7 0 7 4l206 653q1 2 0 3t-5 1h-90q-1 0 0.5 6t4 12t3.5 6h250q98 0 151 -40.5t53 -113.5zM534 619q0 36 -26.5 51t-86.5 15h-48q-6 0 -8 -4l-95 -300h69q99 0 136 56q20 30 39.5 86.5t19.5 95.5z" />
    <glyph glyph-name="S" unicode="S" horiz-adv-x="519" 
d="M534 723l-55 -180q-1 -1 -13 -1t-12 1q23 71 -6.5 115t-86.5 44q-67 0 -103.5 -32.5t-36.5 -89.5q0 -38 24.5 -74t59 -65.5t69 -60.5t59 -72.5t24.5 -87.5q0 -106 -67 -171.5t-176 -65.5q-51 0 -92.5 19t-49.5 19q-20 0 -28.5 -4.5t-15.5 -17.5q-3 -3 -24 0l63 219
q0 1 6.5 1.5t12.5 0t6 -1.5q-28 -88 3.5 -150t125.5 -62q74 0 117 36t43 104q0 42 -24 78.5t-58.5 65t-68.5 58t-58 70t-24 88.5q0 91 61 155.5t148 64.5q37 0 75 -12.5t41 -12.5q25 0 36 22q3 4 21 2q4 -1 4 -2z" />
    <glyph glyph-name="T" unicode="T" horiz-adv-x="602" 
d="M701 706l-65 -206q0 -1 -6 -1.5t-12 0t-6 1.5q17 58 16 99t-36 63.5t-107 22.5h-11q-7 0 -7 -4l-206 -653q-1 -2 0 -3t5 -1h90q1 0 -0.5 -6t-4 -12t-3.5 -6h-302q-1 0 0.5 6t4 12t3.5 6h89q7 0 8 4l206 653q1 2 -0.5 3t-4.5 1h-11q-104 0 -155 -41.5t-81 -136.5
q0 -1 -12.5 -1t-12.5 1l63 199q0 3 4 3h552q2 0 2.5 -1t-0.5 -2z" />
    <glyph glyph-name="U" unicode="U" horiz-adv-x="730" 
d="M817 709q1 0 0 -6t-3.5 -12t-3.5 -6h-79q-6 0 -8 -4l-153 -484q-67 -214 -277 -214q-100 0 -147.5 50.5t-47.5 131.5q0 45 16 98l132 418q1 2 -0.5 3t-4.5 1h-90q-1 0 0.5 6t3.5 12t3 6h302q1 0 -0.5 -6t-3.5 -12t-3 -6h-90q-6 0 -8 -4l-130 -417q-28 -86 -28 -139
q0 -49 35 -76.5t98 -27.5q83 0 135 46t85 150l147 464q1 2 -0.5 3t-4.5 1h-79q-1 0 0 6t3.5 12t3.5 6h197z" />
    <glyph glyph-name="V" unicode="V" horiz-adv-x="638" 
d="M817 685h-79q-16 0 -48 -42l-497 -658q-1 -2 -7.5 -2.5t-12.5 0.5t-6 2l25 696q0 4 -6 4h-80q-1 0 0.5 6t3.5 12t3 6h275q1 0 0 -6t-3 -12t-3 -6h-80q-6 0 -6 -9l-24 -549l388 516q27 40 15 42h-82q-1 0 0 6t3 12t3 6h224q1 0 0 -6t-3 -12t-3 -6z" />
    <glyph glyph-name="W" unicode="W" horiz-adv-x="915" 
d="M1072 685h-79q-5 0 -35 -42l-444 -658q-2 -3 -14 -2.5t-13 2.5l-14 319l-223 -319q-1 -2 -8 -2.5t-13 0.5t-6 2l-31 696q0 4 -7 4h-89q-1 1 0 6.5t3 11.5t3 6h721q1 0 0 -6t-3.5 -12t-3.5 -6h-63q-8 0 -16 -8t-31 -38q-8 -11 -13 -17l-122 -178l14 -311l346 510
q27 41 21 42h-71q-1 0 0 6t3 12t3 6h192q1 0 0 -6t-3.5 -12t-3.5 -6zM701 685h-135q-6 0 -6 -4l9 -202l117 168q28 38 15 38zM470 341l-15 337q1 7 -5 7h-148q-4 0 -5.5 -1t-0.5 -3l25 -551z" />
    <glyph glyph-name="X" unicode="X" horiz-adv-x="649" 
d="M743 709q1 0 -0.5 -6t-4 -12t-3.5 -6h-71q-8 0 -48 -42l-210 -246l89 -369q0 -4 7 -4h104q1 0 0 -6t-3.5 -12t-3.5 -6h-319q-1 0 0.5 6t4 12t3.5 6h91q5 0 5 4l-65 267l-196 -229q-36 -39 -32 -41q1 -1 4 -1h75q1 0 -0.5 -6t-4 -12t-3.5 -6h-201q-1 0 0 6t3.5 12t3.5 6
h76q8 0 48 42l220 258l-87 357q0 4 -7 4h-83q-1 0 0.5 6t4 12t3.5 6h287q1 0 -0.5 -6t-3.5 -12t-3 -6h-82q-5 0 -5 -4l63 -255l194 227q22 30 13 32h-72q-1 0 0.5 6t3.5 12t3 6h202z" />
    <glyph glyph-name="Y" unicode="Y" horiz-adv-x="632" 
d="M769 709q1 0 -0.5 -6t-4 -12t-3.5 -6h-77q-10 0 -43 -42l-250 -317l-94 -298q-1 -2 0.5 -3t4.5 -1h90q1 0 -0.5 -6t-3.5 -12t-3 -6h-302q-1 0 0.5 6t3.5 12t3 6h90q7 0 8 4l95 300l-62 353q-2 4 -7 4h-93q-1 0 0.5 6t4 12t3.5 6h323q1 0 -0.5 -6t-3.5 -12t-3 -6h-108
q-5 -1 -5 -4l53 -327l225 289q30 41 25 42h-75q-1 0 0.5 6t3.5 12t3 6h202z" />
    <glyph glyph-name="Z" unicode="Z" 
d="M670 709q1 0 1.5 -3.5t0 -8t-2.5 -6.5l-559 -663q-2 -4 3 -4h120q125 0 186.5 45.5t88.5 131.5q0 1 6.5 1.5t12.5 0t6 -1.5l-62 -198q-1 -3 -4 -3h-488q-1 0 -1.5 3.5t0 8t2.5 6.5l559 663q0 3 -3 4h-114q-97 0 -153.5 -47.5t-85.5 -139.5q0 -2 -12.5 -2t-12.5 2l66 208
q3 3 4 3h442z" />
    <glyph glyph-name="bracketleft" unicode="[" horiz-adv-x="292" 
d="M452 713h-116q-6 0 -7 -4l-292 -926q-1 -2 0.5 -3t4.5 -1h114q1 -1 0 -6.5t-3 -11.5t-3 -6h-202q-5 0 -3 4l307 974q1 4 5 4h201q1 0 0 -6t-3 -12t-3 -6z" />
    <glyph glyph-name="backslash" unicode="\" horiz-adv-x="358" 
d="M302 -14l-7 -5l-12 -4l-318 777q0 1 5 3.5t10.5 4.5t5.5 1z" />
    <glyph glyph-name="bracketright" unicode="]" horiz-adv-x="292" 
d="M336 733l-307 -974q-1 -4 -5 -4h-201q-1 0 0 6t3 12t3 6h116q6 0 7 4l292 926q1 2 -0.5 3t-4.5 1h-114q-1 1 0 6.5t3 11.5t3 6h202q5 0 3 -4z" />
    <glyph glyph-name="asciicircum" unicode="^" horiz-adv-x="326" 
d="M343 524l-54 -8q-28 51 -46 127q-59 -61 -137 -126q-3 -3 -19 6q-4 2 -3 3q34 29 68.5 65t68.5 75t48 54q2 1 13 -2.5t11 -4.5q11 -93 50 -189z" />
    <glyph glyph-name="underscore" unicode="_" horiz-adv-x="529" 
d="M485 0h-441q-2 0 -2 12t2 12h441q1 0 1 -12t-1 -12z" />
    <glyph glyph-name="grave" unicode="`" horiz-adv-x="354" 
d="M375 534q1 0 0.5 -2.5t-1.5 -6.5t-2 -7.5t-2 -5.5t-2 -2q-100 24 -146 69t-46 91q0 17 10.5 28t26.5 11q13 0 21 -14.5t16 -37t19.5 -46t38.5 -45.5t67 -32z" />
    <glyph glyph-name="a" unicode="a" horiz-adv-x="510" 
d="M477 441l-114 -361q-14 -44 16 -44q46 0 81 65l24 -9q-26 -50 -62.5 -75.5t-67.5 -25.5q-37 0 -57.5 22.5t-13.5 54.5q-43 -77 -122 -77q-68 0 -100 46t-32 113q0 65 36 130.5t100.5 110t138.5 44.5q26 0 48.5 -13.5t28.5 -36.5l22 38zM369 347q-3 30 -20.5 47t-44.5 17
q-43 0 -85 -30q-52 -40 -84 -122t-32 -151q0 -88 71 -88q45 0 76 37.5t70 137.5z" />
    <glyph glyph-name="b" unicode="b" horiz-adv-x="485" 
d="M440 288q0 -114 -92.5 -205.5t-198.5 -91.5q-73 0 -103.5 48.5t-5.5 126.5l169 541q1 2 0 3t-5 1l-55 -1q-1 0 0.5 6t4 12t3.5 6l138 4q2 0 2 -3l-121 -388q16 38 51 62.5t69 24.5q63 0 103.5 -39.5t40.5 -106.5zM367 312q0 47 -16 70t-58 23q-43 0 -80.5 -40.5
t-65.5 -112.5l-47 -143q-13 -43 2 -69t49 -26q47 0 77.5 16.5t59.5 55.5q27 37 53 107.5t26 118.5z" />
    <glyph glyph-name="c" unicode="c" horiz-adv-x="421" 
d="M396 333q0 -22 -13 -33.5t-33 -11.5t-30.5 12t-10.5 29q0 16 7.5 30t7.5 24q0 27 -52 27q-44 0 -66 -17t-43 -54q-18 -32 -41 -111t-23 -116q0 -98 89 -98q87 0 161 93l18 -13q-35 -47 -83 -75t-97 -28q-68 0 -113 46.5t-45 120.5q0 109 73 192.5t172 83.5
q53 0 87.5 -32.5t34.5 -68.5z" />
    <glyph glyph-name="d" unicode="d" horiz-adv-x="500" 
d="M570 734l-207 -655q-14 -43 17 -43q44 0 81 64l23 -9q-26 -50 -62.5 -75t-67.5 -25q-85 0 -69 92q-19 -38 -51.5 -65t-72.5 -27q-68 0 -100 45.5t-32 111.5q0 102 85 194t196 92q25 0 46.5 -11.5t26.5 -30.5l100 315q0 4 -6 4l-55 -2q-1 0 0.5 6t4 12t3.5 6l138 4
q2 0 2 -3zM368 344q4 31 -13 48.5t-51 17.5q-46 0 -84 -30q-52 -39 -84.5 -122t-32.5 -152q0 -86 72 -86q39 0 81.5 56t72.5 145z" />
    <glyph glyph-name="e" unicode="e" horiz-adv-x="425" 
d="M395 352q0 -61 -62.5 -103.5t-165.5 -42.5h-53q-16 -55 -16 -94q0 -98 90 -98q84 0 153 81l14 -17q-74 -87 -169 -87q-68 0 -112.5 46.5t-44.5 120.5q0 108 77.5 192t177.5 84q57 0 84 -25t27 -57zM328 363q0 47 -50 47q-62 0 -96 -41.5t-61 -138.5h51q84 0 120 38.5
t36 94.5z" />
    <glyph glyph-name="f" unicode="f" horiz-adv-x="294" 
d="M497 645q0 -23 -13.5 -37t-32.5 -14q-40 0 -40 33q0 12 9 31t9 26q0 35 -41 35q-34 0 -65 -42.5t-71 -168.5q-9 -29 -21 -73h117q1 0 -0.5 -6t-3.5 -11.5t-3 -5.5h-117q-13 -49 -41.5 -158t-49.5 -185.5t-37 -125.5q-42 -126 -91 -192.5t-120 -66.5q-43 0 -72.5 27
t-29.5 63q0 23 13.5 37.5t32.5 14.5q40 0 40 -34q0 -12 -9 -30t-9 -25q0 -29 40 -29q37 0 60 37.5t62 158.5q24 76 69 260.5t63 247.5h-104q-1 0 0.5 6t4 11.5t3.5 5.5h103q12 41 17 56q37 115 96 183.5t130 68.5q53 0 77.5 -30t24.5 -68z" />
    <glyph glyph-name="g" unicode="g" horiz-adv-x="483" 
d="M478 440l-139 -439q-50 -159 -115.5 -238t-163.5 -79q-55 0 -88 32.5t-33 82.5q0 30 17 50.5t44 20.5q19 0 33 -14.5t14 -32.5q0 -16 -9 -30t-19 -16q-21 -4 -21 -33q0 -36 68 -36q41 0 68 21.5t60 92.5t79 216l12 38q-50 -86 -124 -86q-68 0 -100 45.5t-32 112.5
q0 102 85 194t196 92q55 0 76 -39l18 26zM371 352q2 28 -18 43t-49 15q-46 0 -84 -30q-52 -39 -84.5 -121t-32.5 -151q0 -89 72 -89q40 0 74 41t75 143z" />
    <glyph glyph-name="h" unicode="h" horiz-adv-x="507" 
d="M490 91q-25 -49 -63 -74.5t-70 -25.5q-39 0 -59.5 19.5t-20.5 51.5q0 39 42 130.5t42 138.5q0 18 -13.5 30t-31.5 12q-31 0 -79 -45.5t-96 -125.5l-64 -202h-78l223 708q0 3 -6 3l-55 -1q-1 0 0.5 6t4 12t3.5 6l138 4q2 0 2 -3l-147 -466q41 75 102.5 120t109.5 45
q26 0 47.5 -19.5t21.5 -59.5q0 -45 -43.5 -148t-43.5 -133q0 -39 30 -39q24 0 42.5 15t38.5 50z" />
    <glyph glyph-name="i" unicode="i" horiz-adv-x="272" 
d="M270 637q0 -21 -15 -36t-36 -15t-36 15t-15 36t15 36t36 15t36 -15t15 -36zM251 91q-25 -50 -62 -75t-68 -25q-38 0 -58.5 19.5t-20.5 51.5q0 39 48 147t48 154q0 16 -5 22.5t-19 6.5q-30 0 -56 -54l-24 8q21 47 51.5 67.5t58.5 20.5q69 0 69 -71q0 -43 -24 -101.5
t-48 -110t-24 -77.5q0 -39 30 -39q24 0 42.5 15t38.5 50z" />
    <glyph glyph-name="j" unicode="j" horiz-adv-x="259" 
d="M265 638q0 -21 -15 -36t-36 -15t-36 15t-15 36t15 36t36 15t36 -15t15 -36zM194 270l-110 -349q-38 -117 -89 -177t-132 -60q-42 0 -67.5 24t-25.5 60q0 23 13.5 37.5t32.5 14.5q40 0 40 -34q0 -12 -8 -28t-8 -23q0 -15 6.5 -21t22.5 -6q39 0 67.5 40.5t64.5 155.5
l139 441q7 21 0.5 34.5t-21.5 13.5q-29 0 -56 -55l-23 9q21 47 51 67.5t58 20.5q106 0 45 -165z" />
    <glyph glyph-name="k" unicode="k" horiz-adv-x="475" 
d="M452 380q0 -22 -14 -40.5t-35 -18.5q-35 0 -35 29q0 9 5.5 17.5t5.5 13.5q0 13 -18 13q-19 0 -37.5 -22.5t-43 -56.5t-49.5 -52q29 -15 43 -45.5t16.5 -62.5t6 -62.5t19.5 -49.5t50 -19q22 0 34 12t12 31q0 14 -23 27t-23 32q0 14 11 25t29 11q20 0 33.5 -17t13.5 -35
q0 -52 -33 -85.5t-91 -33.5q-44 0 -70.5 26t-36.5 63t-17 73.5t-18.5 61.5t-33.5 23l-75 -238h-79l223 708q0 3 -6 3l-55 -1q-1 0 0.5 6t4 12t3.5 6l138 4q2 0 2 -3l-148 -472q34 2 61 20.5t44.5 43.5t34.5 49t39.5 41t49.5 17q62 0 62 -54z" />
    <glyph glyph-name="l" unicode="l" horiz-adv-x="269" 
d="M319 735l-210 -668q-5 -14 0.5 -23t18.5 -9q45 0 81 65l24 -9q-26 -50 -62.5 -75t-67.5 -25q-46 0 -61 33.5t3 88.5l187 595q1 1 -0.5 2t-4.5 1l-56 -1q-1 0 0.5 6t4 12t3.5 6l138 4q3 0 2 -3z" />
    <glyph glyph-name="m" unicode="m" horiz-adv-x="778" 
d="M761 91q-25 -49 -63.5 -74.5t-69.5 -25.5q-39 0 -59.5 19.5t-20.5 51.5q0 39 41.5 130.5t41.5 138.5q0 18 -13 30t-31 12q-26 0 -69.5 -45t-91.5 -126l-63 -202h-79l86 272q14 50 5 75.5t-36 25.5q-69 0 -171 -171l-63 -202h-79l109 345q6 21 0 34t-21 13q-30 0 -56 -54
l-23 8q21 46 54 67t63 21q98 0 37 -165q44 79 97 122t101 43q24 0 44 -17.5t29 -54t-13 -93.5q44 79 97 122t101 43q26 0 47 -19.5t21 -59.5q0 -45 -43 -148t-43 -133q0 -39 30 -39q24 0 42.5 15t38.5 50z" />
    <glyph glyph-name="n" unicode="n" horiz-adv-x="534" 
d="M518 91q-25 -49 -63 -74.5t-70 -25.5q-39 0 -59.5 19.5t-20.5 51.5q0 39 42 130.5t42 138.5q0 18 -13.5 30t-31.5 12q-31 0 -79 -45.5t-96 -125.5l-64 -202h-78l109 345q6 21 0 34t-21 13q-30 0 -56 -54l-23 8q21 46 54 67t62 21q99 0 38 -165q41 75 102.5 120t109.5 45
q26 0 47.5 -19.5t21.5 -59.5q0 -45 -43.5 -148t-43.5 -133q0 -39 30 -39q24 0 42.5 15t38.5 50z" />
    <glyph glyph-name="o" unicode="o" horiz-adv-x="490" 
d="M441 266q0 -108 -77.5 -191.5t-177.5 -83.5q-68 0 -112.5 46.5t-44.5 120.5q0 108 77.5 192t177.5 84q68 0 112.5 -47t44.5 -121zM372 313q0 97 -90 97q-45 0 -72.5 -18t-47.5 -53q-18 -32 -41 -111t-23 -116q0 -98 90 -98q78 0 120 72q18 33 41 111.5t23 115.5z" />
    <glyph glyph-name="p" unicode="p" horiz-adv-x="518" 
d="M469 278q0 -64 -37.5 -130.5t-101.5 -111.5t-132 -45q-62 0 -85 37l-106 -335h-79l207 653q7 20 0.5 33.5t-21.5 13.5q-30 0 -56 -55l-23 9q40 88 116 88q38 0 52.5 -28.5t-0.5 -84.5q23 48 60.5 80.5t73.5 32.5q68 0 100 -45.5t32 -111.5zM395 320q0 86 -72 86
q-73 0 -160 -220l-38 -123q15 -48 80 -48q32 0 73 30q52 40 84.5 123t32.5 152z" />
    <glyph glyph-name="q" unicode="q" horiz-adv-x="484" 
d="M477 441l-235 -749h-79l125 395q-19 -45 -53 -71t-74 -26q-68 0 -100 46t-32 113q0 102 85 193.5t196 91.5q23 0 44.5 -13.5t26.5 -35.5l23 37zM369 347q-2 29 -19.5 46t-45.5 17q-43 0 -85 -30q-52 -40 -84 -121.5t-32 -150.5q0 -89 71 -89q78 0 143 165z" />
    <glyph glyph-name="r" unicode="r" horiz-adv-x="405" 
d="M404 358q0 -23 -15.5 -44.5t-36.5 -21.5t-32 11t-11 26q0 13 4.5 22t4.5 12q0 22 -18 22q-24 0 -54.5 -41.5t-77.5 -141.5l-63 -202h-79l109 345q6 21 0 34t-21 13q-30 0 -56 -54l-23 8q21 46 54 67t63 21q43 0 56.5 -33.5t-8.5 -97.5q61 131 134 131q33 0 51.5 -22.5
t18.5 -53.5z" />
    <glyph glyph-name="s" unicode="s" horiz-adv-x="361" 
d="M329 347q0 -20 -12.5 -31t-30.5 -11t-28 11t-10 26q0 11 7.5 23t7.5 19q0 27 -46 27q-70 0 -70 -73q0 -20 13.5 -39t33 -35t39 -33.5t33 -42.5t13.5 -54q0 -54 -37 -98.5t-115 -44.5q-55 0 -88 27.5t-33 70.5q0 22 13 38t33 16q19 0 29.5 -12t10.5 -26q0 -24 -12.5 -33.5
t-12.5 -20.5q0 -36 67 -36q39 0 61 21t22 59q0 30 -20.5 57t-44.5 44t-44.5 44.5t-20.5 58.5q0 55 39 95t98 40q45 0 75 -25.5t30 -61.5z" />
    <glyph glyph-name="t" unicode="t" horiz-adv-x="273" 
d="M299 435q1 0 -0.5 -6t-4 -12t-3.5 -6h-75l-108 -344q-4 -14 1.5 -23t18.5 -9q24 0 42.5 15t38.5 50l23 -9q-25 -50 -62 -75t-68 -25q-96 0 -58 122l94 298h-73q-1 0 0.5 6t4 12t3.5 6h73l43 140l81 6l-46 -146h75z" />
    <glyph glyph-name="u" unicode="u" horiz-adv-x="524" 
d="M493 431l-114 -364q-5 -14 0.5 -23t18.5 -9q24 0 42.5 14.5t38.5 50.5l24 -9q-25 -49 -65.5 -75t-71.5 -26q-99 0 -41 156q-42 -75 -95 -115t-100 -40q-37 0 -60 25t-23 68q0 44 46 147t46 132t-24 29q-31 0 -56 -54l-24 8q21 47 51.5 67.5t58.5 20.5q68 0 68 -71
q0 -39 -45 -134t-45 -142q0 -19 14.5 -32.5t33.5 -13.5q75 0 178 182l63 202z" />
    <glyph glyph-name="v" unicode="v" horiz-adv-x="485" 
d="M451 377q0 -76 -43 -167t-110 -155t-127 -64q-108 0 -108 105q0 34 36.5 125t36.5 139q0 32 -30 32q-31 0 -56 -54l-24 8q21 46 54 67t63 21q67 0 67 -83q0 -51 -36 -138t-36 -118q0 -38 12 -53t40 -15q63 0 130 86.5t67 168.5q0 30 -7 59t-7 47q0 20 9 33t25 13
q44 0 44 -57z" />
    <glyph glyph-name="w" unicode="w" horiz-adv-x="705" 
d="M672 377q0 -76 -45 -167t-113.5 -155t-128.5 -64q-56 0 -82.5 32t-13.5 90q-34 -54 -86.5 -88t-99.5 -34q-26 0 -45.5 19.5t-19.5 59.5q0 44 45.5 154t45.5 139t-23 29q-31 0 -56 -54l-24 8q41 88 117 88q57 0 57 -71q0 -39 -43 -135.5t-43 -143.5q0 -18 13 -30.5
t31 -12.5q36 0 77.5 40.5t76.5 107.5l73 236l81 6l-97 -318q-15 -45 -3 -65.5t44 -20.5q37 0 84 42.5t80 103.5t33 109q0 30 -7 59t-7 47q0 20 9 33t25 13q23 0 34 -16t11 -41z" />
    <glyph glyph-name="x" unicode="x" horiz-adv-x="485" 
d="M475 370q0 -32 -17.5 -49.5t-38.5 -17.5q-32 0 -32 29q0 7 5 17.5t5 16.5q0 20 -21 20q-42 0 -114 -158l2 -8q30 -172 97 -172q41 0 70 60l23 -9q-20 -54 -55.5 -81t-70.5 -27q-82 0 -119 153q-71 -153 -162 -153q-33 0 -52 17t-19 48q0 28 16.5 46.5t39.5 18.5
q15 0 24 -9t9 -20q0 -8 -5.5 -17.5t-5.5 -16.5q0 -10 6.5 -17.5t18.5 -7.5q55 0 120 138q-7 35 -8 41q-13 75 -24 110t-21 44.5t-28 9.5q-21 0 -45 -46l-21 16q45 88 108 88q41 0 58 -34t36 -131q78 165 161 165q29 0 44.5 -19.5t15.5 -44.5z" />
    <glyph glyph-name="y" unicode="y" horiz-adv-x="456" 
d="M485 407q0 -27 -36 -38q-23 -7 -38.5 -15t-33 -26.5t-30 -38t-32.5 -61.5t-37.5 -83.5t-49.5 -118.5q-24 -59 -38.5 -93t-34 -75.5t-33.5 -64t-33 -46.5t-36.5 -35.5t-39.5 -19t-47 -7.5q-43 0 -70 24.5t-27 62.5q0 25 14 39.5t34 14.5q42 0 42 -35q0 -13 -9 -32t-9 -26
q0 -15 7 -19.5t24 -4.5q45 0 82 37.5t58.5 80.5t65.5 147q10 23 15 35l-35 205q-13 70 -28 106t-25 42t-25 6q-22 0 -47 -43l-19 15q52 95 117 95q32 0 52.5 -34.5t39.5 -138.5l23 -127q63 154 113 227t96 73q30 0 30 -28z" />
    <glyph glyph-name="z" unicode="z" horiz-adv-x="449" 
d="M435 428l-326 -329q7 2 20 2q33 0 69.5 -18t67 -36t47.5 -18q71 0 71 70q0 32 -19 32q-5 0 -19 -6.5t-29 -6.5q-13 0 -21 8t-8 21q0 19 11.5 30.5t31.5 11.5q36 0 58.5 -23.5t22.5 -59.5q0 -55 -38.5 -85.5t-96.5 -30.5q-30 0 -91 22t-90 22q-50 0 -89 -47l-18 17
l326 335q-19 -11 -47 -11q-71 0 -145 30l-29 -75l-22 8l58 151q122 -59 192 -59q8 0 14.5 1t13.5 4t11 5t11.5 8l10 8t11 10t10.5 10l13 13z" />
    <glyph glyph-name="braceleft" unicode="{" horiz-adv-x="292" 
d="M402 714h-6q-52 0 -83 -23t-49 -77q-11 -35 -23.5 -140t-24.5 -144q-24 -71 -74 -77q29 -10 29 -54q0 -32 -29 -96t-58 -135t-29 -121q0 -36 13 -51.5t53 -15.5h15q1 0 0 -6t-3 -12t-3 -6h-15q-65 0 -98 35t-33 94q0 47 24 103t53 97t53 80.5t24 57.5q0 12 -10 16
q-4 1 -10 1t-13.5 -1t-11.5 -1t-4 15q0 3 4 8.5t7 5.5q4 0 11 -1t13 -1q8 0 12 2q11 3 20 16t9 32v179q0 109 70.5 176.5t166.5 67.5h7q1 0 0 -6t-3.5 -12t-3.5 -6z" />
    <glyph glyph-name="bar" unicode="|" horiz-adv-x="162" 
d="M94 -23q0 -1 -11.5 -1t-11.5 1v778q0 2 11.5 2t11.5 -2v-778z" />
    <glyph glyph-name="braceright" unicode="}" horiz-adv-x="292" 
d="M298 608q0 -47 -24 -103t-53 -97t-53 -80.5t-24 -57.5q0 -12 10 -16q4 -1 10 -1t13.5 1t11.5 1t4 -15q0 -3 -4 -8.5t-7 -5.5q-4 0 -11 1t-13 1q-8 0 -12 -2q-11 -3 -20 -16t-9 -32v-179q0 -109 -70.5 -176.5t-166.5 -67.5h-7q-1 0 0 6t3.5 12t3.5 6h6q52 0 83 23t49 77
q11 35 23.5 140t24.5 144q24 71 74 77q-29 10 -29 54q0 32 29 96t58 135t29 121q0 36 -13 51.5t-53 15.5h-15q-1 0 0 6t3 12t3 6h15q65 0 98 -35t33 -94z" />
    <glyph glyph-name="asciitilde" unicode="~" horiz-adv-x="436" 
d="M430 413q0 -48 -35.5 -80.5t-88.5 -32.5q-36 0 -94 29t-78 29q-32 0 -48 -19t-16 -46q0 -1 -12.5 -1t-12.5 1q0 48 35.5 80.5t88.5 32.5q36 0 94 -29t78 -29q32 0 48 19t16 46q0 2 12.5 2t12.5 -2z" />
    <glyph glyph-name="uni00A0" unicode="&#xa0;" horiz-adv-x="200" 
 />
    <glyph glyph-name="exclamdown" unicode="&#xa1;" horiz-adv-x="276" 
d="M259 345q0 -26 -18.5 -45.5t-42.5 -19.5q-17 0 -27.5 11t-10.5 29q0 26 18.5 45.5t42.5 19.5q17 0 27.5 -11t10.5 -29zM181 208q-31 -101 -70.5 -286t-47.5 -210q-21 -66 -71 -66q-18 0 -27.5 10.5t-9.5 27.5q0 22 37.5 113.5t89 214.5t74.5 196q3 6 20 3q4 -1 5 -3z" />
    <glyph glyph-name="cent" unicode="&#xa2;" horiz-adv-x="421" 
d="M396 333q0 -22 -13 -33.5t-33 -11.5t-30.5 12t-10.5 29q0 16 7.5 30t7.5 24q0 23 -40 26l-105 -395h9q87 0 161 93l18 -13q-35 -47 -83 -75t-97 -28q-10 0 -14 1l-19 -70q0 -2 -13 -2t-13 2q20 73 20 74q-53 12 -86 56t-33 106q0 107 69.5 189t165.5 86l19 71q0 1 7 2
t13 0t6 -2l-19 -71q47 -5 76.5 -36t29.5 -64zM258 409q-37 -2 -56.5 -18.5t-38.5 -51.5q-18 -32 -41 -111t-23 -116q0 -76 55 -94z" />
    <glyph glyph-name="sterling" unicode="&#xa3;" horiz-adv-x="601" 
d="M635 633q0 -35 -16.5 -51t-38.5 -16q-44 0 -44 37q0 13 9.5 34.5t9.5 29.5q0 35 -33 35q-28 0 -49.5 -13t-43 -48t-39 -104t-30.5 -172h113q1 0 0 -6t-3 -12t-3 -6h-112q-9 -68 -47.5 -136t-89.5 -111q20 -4 64.5 -17t82 -20t80.5 -7q29 0 48.5 23.5t19.5 58.5q1 1 6.5 0
t12 -2.5t6.5 -2.5q0 -56 -50 -100t-112 -44q-77 0 -200 54q-60 -54 -120 -54q-28 0 -46 14t-18 40q0 32 29 55t82 23q27 0 95 -13q39 42 59 96.5t20 142.5h-118q-1 0 0.5 6t3.5 12t3 6h112q0 46 8 95q21 109 94 187.5t148 78.5q52 0 79.5 -27t27.5 -66zM150 46q-5 2 -16 7
t-15 6.5l-12 4.5t-12 4t-10.5 2.5t-12 2t-12.5 0.5q-43 0 -43 -39q0 -27 39 -27q58 0 94 39z" />
    <glyph glyph-name="yen" unicode="&#xa5;" horiz-adv-x="607" 
d="M744 709q1 0 -0.5 -6t-4 -12t-3.5 -6h-76q-10 0 -43 -42l-206 -261h166q1 -1 0 -6.5t-3 -11.5t-3 -6h-179l-26 -32l-21 -66h194q1 0 0 -6t-3.5 -12t-3.5 -6h-194l-66 -208q0 -4 6 -4h89q1 0 -0.5 -6t-3.5 -12t-3 -6h-278q-1 0 0 6t3.5 12t3.5 6h90q7 0 7 4l67 208h-194
q-1 0 0 6t3 12t3 6h195l22 69l-6 29h-179q-1 0 0.5 6t3.5 12t3 6h167l-62 299q0 4 -7 4h-82q-1 0 0.5 6t3.5 12t3 6h269q1 0 -0.5 -6t-4 -12t-3.5 -6h-86q-3 0 -4.5 -1t-0.5 -3l66 -324l225 286q29 41 25 42h-89q-1 0 0.5 6t4 12t3.5 6h212z" />
    <glyph glyph-name="section" unicode="&#xa7;" horiz-adv-x="516" 
d="M575 611q0 -49 -27 -78t-63 -29q-18 0 -30.5 11t-12.5 29q0 20 9.5 31t23.5 11q11 0 24 -7t26 -7q22 0 22 54q0 38 -36.5 66t-98.5 28q-75 0 -111.5 -31t-36.5 -86q0 -38 18 -78t44 -75.5t52 -72t44 -82t18 -91.5q0 -184 -159 -220q17 -40 17 -82q0 -39 -12 -75.5
t-37 -70t-70.5 -54t-106.5 -20.5q-81 0 -134 44t-53 101q0 52 29.5 86t69.5 34q21 0 35.5 -13.5t14.5 -33.5q0 -22 -10.5 -34t-26.5 -12q-11 0 -25.5 8t-29.5 8q-29 0 -29 -52q0 -41 47 -76.5t116 -35.5q81 0 119 37.5t38 94.5q0 36 -18 75t-44 74.5t-52 72t-44 81.5t-18 90
q0 79 45.5 136.5t116.5 75.5q-20 40 -20 90q0 92 59.5 151.5t157.5 59.5q68 0 113.5 -40t45.5 -93zM386 140q0 47 -26 92.5t-69 99t-61 87.5q-57 -11 -87.5 -44t-30.5 -74q0 -48 27.5 -96.5t70 -104t61.5 -94.5q65 15 90 48t25 86z" />
    <glyph glyph-name="dieresis" unicode="&#xa8;" horiz-adv-x="439" 
d="M434 594q0 -22 -16 -39t-36 -17q-14 0 -23 9.5t-9 24.5q0 22 15.5 39t36.5 17q14 0 23 -9.5t9 -24.5zM242 594q0 -22 -16 -39t-36 -17q-14 0 -23 9.5t-9 24.5q0 22 16 39t36 17q14 0 23 -9.5t9 -24.5z" />
    <glyph glyph-name="copyright" unicode="&#xa9;" horiz-adv-x="822" 
d="M791 354q0 -154 -104.5 -262.5t-250.5 -108.5q-147 0 -251.5 109t-104.5 262q0 154 104.5 263t251.5 109t251 -109t104 -263zM766 354q0 144 -97 245t-233 101q-137 0 -233.5 -101t-96.5 -245q0 -143 96.5 -244.5t233.5 -101.5q136 0 233 101.5t97 244.5zM582 138
q0 -1 -8 -1t-9 1q-3 18 -26 18q-13 0 -47.5 -9.5t-51.5 -9.5q-82 0 -137.5 66t-55.5 157t54.5 157t135.5 66q14 0 44.5 -8.5t43.5 -8.5q26 0 30 15q0 1 8 1t8 -1v-126q0 -1 -8 -1t-8 1q0 43 -37 76.5t-81 33.5q-46 0 -71 -22q-46 -40 -46 -183q0 -142 46 -184q25 -21 74 -21
q54 0 89.5 34.5t35.5 92.5q0 1 8.5 1t8.5 -1v-144z" />
    <glyph glyph-name="ordfeminine" unicode="&#xaa;" horiz-adv-x="348" 
d="M402 477q-16 -44 -45.5 -65.5t-57.5 -21.5q-19 0 -31.5 13t-13.5 40q-32 -53 -82 -53q-44 0 -68.5 36.5t-24.5 90.5q0 74 62 147t137 73q44 0 49 -33l8 26l63 10l-83 -288q-7 -23 12 -23q16 0 26 10.5t26 42.5zM315 664q5 49 -41 49q-33 0 -51 -16q-35 -29 -61.5 -99
t-26.5 -120q0 -33 10.5 -47t35.5 -14q55 0 93 104z" />
    <glyph glyph-name="guillemotleft" unicode="&#xab;" horiz-adv-x="442" 
d="M437 371q-15 -47 -52.5 -92.5t-79.5 -69.5q24 -30 33 -71.5t-4 -91.5q0 -1 -3 -1t-7 0.5t-8 1.5t-6.5 3t-2.5 3q16 50 -17.5 97.5t-65.5 66.5q-2 2 1 4q17 7 40 20t54.5 33.5t56.5 48t33 54.5q1 1 4 1.5t7 -0.5l8 -2t6.5 -2.5t2.5 -2.5zM262 371q-15 -47 -52.5 -92.5
t-79.5 -69.5q24 -30 33 -71.5t-4 -91.5q0 -1 -3 -1t-7 0.5t-8 1.5t-6.5 3t-2.5 3q16 50 -17.5 97.5t-65.5 66.5q-2 2 1 4q17 7 40 20t54.5 33.5t56.5 48t33 54.5q1 1 4 1.5t7 -0.5l8 -2t6.5 -2.5t2.5 -2.5z" />
    <glyph glyph-name="registered" unicode="&#xae;" horiz-adv-x="504" 
d="M507 542q0 -80 -55 -137.5t-132 -57.5q-79 0 -134 57.5t-55 137.5q0 82 55 139.5t134 57.5q77 0 132 -58t55 -139zM492 542q0 76 -50.5 129.5t-121.5 53.5q-72 0 -122.5 -53.5t-50.5 -129.5q0 -75 50.5 -127.5t122.5 -52.5q71 0 121.5 53t50.5 127zM431 445q-9 -9 -28 -9
q-46 0 -46 56v11q0 13 -12 22t-30 9h-25v-79h30q1 0 1 -7.5t-1 -7.5h-93v15h26v175q0 1 -1 1h-25v15h89q33 0 53.5 -14t20.5 -36q0 -23 -14.5 -38t-39.5 -16q60 -3 60 -51v-24q0 -16 16 -16q7 0 14 7zM351 595q0 36 -43 36h-17q-1 0 -1 -1v-79h25q36 0 36 44z" />
    <glyph glyph-name="macron" unicode="&#xaf;" horiz-adv-x="400" 
d="M445 556h-320q-3 16 0 32h320q3 -16 0 -32z" />
    <glyph glyph-name="degree" unicode="&#xb0;" horiz-adv-x="283" 
d="M331 655q0 -44 -30 -74t-73 -30q-31 0 -49 18.5t-18 48.5q0 44 30 74.5t73 30.5q31 0 49 -18.5t18 -49.5zM304 652q0 46 -48 46q-27 0 -47.5 -22.5t-20.5 -53.5q0 -46 48 -46q27 0 47.5 22.5t20.5 53.5z" />
    <glyph glyph-name="plusminus" unicode="&#xb1;" horiz-adv-x="395" 
d="M337 237h-122v-139q0 -2 -15.5 -2t-15.5 2v139h-130q-2 0 -2 16.5t2 16.5h130v148q0 2 15.5 2t15.5 -2v-148h122q1 0 1 -16.5t-1 -16.5zM337 18h-283q-2 0 -2 16.5t2 16.5h283q1 0 1 -16.5t-1 -16.5z" />
    <glyph glyph-name="acute" unicode="&#xb4;" horiz-adv-x="354" 
d="M363 665q0 -38 -66.5 -84.5t-199.5 -70.5q-1 1 -0.5 6.5t2.5 11.5t3 6q47 9 83.5 29t56.5 42.5t35 43.5t28 34.5t26 13.5q15 0 23.5 -9t8.5 -23z" />
    <glyph glyph-name="paragraph" unicode="&#xb6;" horiz-adv-x="646" 
d="M765 708q1 0 -0.5 -6t-3.5 -12t-3 -6h-79q-7 0 -8 -3l-206 -653q-1 -2 0.5 -3t4.5 -1h79q1 0 0 -6t-3.5 -12t-3.5 -6h-203q-109 0 -184.5 77.5t-75.5 194.5q0 111 69.5 213t175.5 162.5t212 60.5h229zM645 680q1 2 -0.5 3t-4.5 1h-72q-7 0 -8 -4l-206 -653q-1 -1 0.5 -2
t4.5 -1h72q7 0 8 3z" />
    <glyph glyph-name="periodcentered" unicode="&#xb7;" horiz-adv-x="181" 
d="M157 366q0 -26 -18.5 -45.5t-42.5 -19.5q-17 0 -27.5 11t-10.5 29q0 26 18.5 46t42.5 20q17 0 27.5 -11.5t10.5 -29.5z" />
    <glyph glyph-name="cedilla" unicode="&#xb8;" horiz-adv-x="289" 
d="M114 -158q0 -32 -26 -53t-56 -21q-33 0 -51.5 20.5t-18.5 51.5q0 12 10 25t22 13q21 0 21 -23q0 -9 -9 -18.5t-9 -13.5q0 -12 10.5 -21.5t26.5 -9.5q25 0 35 10.5t10 30.5q0 13 -26 43t-26 54q0 40 46 72q3 3 20 -6q3 -2 3 -3q-23 -15 -23 -35q0 -22 20.5 -55t20.5 -61z
" />
    <glyph glyph-name="ordmasculine" unicode="&#xba;" horiz-adv-x="350" 
d="M372 603q0 -79 -57.5 -146t-124.5 -67q-46 0 -78 39.5t-32 94.5q0 79 57.5 146t124.5 67q45 0 77.5 -39.5t32.5 -94.5zM312 646q0 35 -12 51t-40 16q-51 0 -75 -46q-12 -24 -28.5 -91t-16.5 -95q0 -35 12 -51t40 -16q50 0 75 46q12 24 28.5 91t16.5 95z" />
    <glyph glyph-name="guillemotright" unicode="&#xbb;" horiz-adv-x="442" 
d="M392 207q2 -2 -1 -4q-26 -11 -58.5 -29.5t-73.5 -55t-52 -72.5q-2 -3 -15.5 0t-12.5 7q15 46 52 91.5t80 70.5q-24 29 -33 71t4 91q0 1 3 1.5t7 -0.5l8 -2t6.5 -2.5t2.5 -2.5q-16 -50 17.5 -97.5t65.5 -66.5zM217 207q2 -2 -1 -4q-26 -11 -58.5 -29.5t-73.5 -55
t-52 -72.5q-2 -3 -15.5 0t-12.5 7q15 46 52 91.5t80 70.5q-24 29 -33 71t4 91q0 1 3 1.5t7 -0.5l8 -2t6.5 -2.5t2.5 -2.5q-16 -50 17.5 -97.5t65.5 -66.5z" />
    <glyph glyph-name="questiondown" unicode="&#xbf;" horiz-adv-x="456" 
d="M439 345q0 -26 -18.5 -45.5t-42.5 -19.5q-17 0 -27.5 11t-10.5 29q0 26 18.5 45.5t42.5 19.5q17 0 27.5 -11t10.5 -29zM360 208l-57 -193q-1 -1 -1 -3v-2q-1 -3 -12.5 -6t-12.5 1q-4 15 -18 25t-35 10q-50 0 -74.5 -12.5t-42.5 -43.5q-17 -30 -42 -111t-25 -115
q0 -42 25.5 -64.5t66.5 -22.5q49 0 68 15.5t19 54.5q0 15 -6.5 28t-6.5 24q0 17 12 27.5t35 10.5q21 0 34.5 -15t13.5 -36q0 -47 -48 -90t-118 -43q-67 0 -113 50t-46 119q0 104 72.5 176.5t169.5 72.5q22 0 40.5 -8t23.5 -18l53 169q3 6 20 3q4 -1 5 -3z" />
    <glyph glyph-name="Agrave" unicode="&#xc0;" horiz-adv-x="621" 
d="M570 0h-286q-1 0 0.5 6t4 12t3.5 6h72q7 0 7 3v208h-235l-119 -169q-27 -38 -18 -41q3 -1 7 -1h75q1 0 -0.5 -6t-4 -12t-3.5 -6h-202q-1 0 0.5 6t3.5 12t3 6h54q24 0 53 41l463 658q1 2 7.5 2.5t12.5 -0.5t6 -2v-696q0 -3 7 -3h97q1 0 -0.5 -6t-4 -12t-3.5 -6zM371 260
v306l-216 -306h216zM587 799q1 0 0.5 -2.5t-1.5 -6.5t-2 -7.5t-2 -5.5t-2 -2q-100 24 -146 69t-46 91q0 17 10.5 28t26.5 11q13 0 21 -14.5t16 -37t19.5 -46t38.5 -45.5t67 -32z" />
    <glyph glyph-name="Aacute" unicode="&#xc1;" horiz-adv-x="621" 
d="M570 0h-286q-1 0 0.5 6t4 12t3.5 6h72q7 0 7 3v208h-235l-119 -169q-27 -38 -18 -41q3 -1 7 -1h75q1 0 -0.5 -6t-4 -12t-3.5 -6h-202q-1 0 0.5 6t3.5 12t3 6h54q24 0 53 41l463 658q1 2 7.5 2.5t12.5 -0.5t6 -2v-696q0 -3 7 -3h97q1 0 -0.5 -6t-4 -12t-3.5 -6zM371 260
v306l-216 -306h216zM661 930q0 -38 -66.5 -84.5t-199.5 -70.5q-1 1 -0.5 6.5t2.5 11.5t3 6q47 9 83.5 29t56.5 42.5t35 43.5t28 34.5t26 13.5q15 0 23.5 -9t8.5 -23z" />
    <glyph glyph-name="Acircumflex" unicode="&#xc2;" horiz-adv-x="621" 
d="M570 0h-286q-1 0 0.5 6t4 12t3.5 6h72q7 0 7 3v208h-235l-119 -169q-27 -38 -18 -41q3 -1 7 -1h75q1 0 -0.5 -6t-4 -12t-3.5 -6h-202q-1 0 0.5 6t3.5 12t3 6h54q24 0 53 41l463 658q1 2 7.5 2.5t12.5 -0.5t6 -2v-696q0 -3 7 -3h97q1 0 -0.5 -6t-4 -12t-3.5 -6zM371 260
v306l-216 -306h216zM616 789l-54 -8q-28 51 -46 127q-59 -61 -137 -126q-3 -3 -19 6q-4 2 -3 3q34 29 68.5 65t68.5 75t48 54q2 1 13 -2.5t11 -4.5q11 -93 50 -189z" />
    <glyph glyph-name="Atilde" unicode="&#xc3;" horiz-adv-x="621" 
d="M570 0h-286q-1 0 0.5 6t4 12t3.5 6h72q7 0 7 3v208h-235l-119 -169q-27 -38 -18 -41q3 -1 7 -1h75q1 0 -0.5 -6t-4 -12t-3.5 -6h-202q-1 0 0.5 6t3.5 12t3 6h54q24 0 53 41l463 658q1 2 7.5 2.5t12.5 -0.5t6 -2v-696q0 -3 7 -3h97q1 0 -0.5 -6t-4 -12t-3.5 -6zM371 260
v306l-216 -306h216zM700 926q0 -48 -35.5 -80.5t-88.5 -32.5q-36 0 -94 29t-78 29q-32 0 -48 -19t-16 -46q0 -2 -12.5 -2t-12.5 2q0 48 35.5 80.5t88.5 32.5q36 0 94 -29t78 -29q32 0 48 19t16 46q0 2 12.5 2t12.5 -2z" />
    <glyph glyph-name="Adieresis" unicode="&#xc4;" horiz-adv-x="621" 
d="M570 0h-286q-1 0 0.5 6t4 12t3.5 6h72q7 0 7 3v208h-235l-119 -169q-27 -38 -18 -41q3 -1 7 -1h75q1 0 -0.5 -6t-4 -12t-3.5 -6h-202q-1 0 0.5 6t3.5 12t3 6h54q24 0 53 41l463 658q1 2 7.5 2.5t12.5 -0.5t6 -2v-696q0 -3 7 -3h97q1 0 -0.5 -6t-4 -12t-3.5 -6zM371 260
v306l-216 -306h216zM639 859q0 -22 -16 -39t-36 -17q-14 0 -23 9.5t-9 24.5q0 22 15.5 39t36.5 17q14 0 23 -9.5t9 -24.5zM447 859q0 -22 -16 -39t-36 -17q-14 0 -23 9.5t-9 24.5q0 22 16 39t36 17q14 0 23 -9.5t9 -24.5z" />
    <glyph glyph-name="Aring" unicode="&#xc5;" horiz-adv-x="621" 
d="M570 0h-286q-1 0 0.5 6t4 12t3.5 6h72q7 0 7 3v208h-235l-119 -169q-27 -38 -18 -41q3 -1 7 -1h75q1 0 -0.5 -6t-4 -12t-3.5 -6h-202q-1 0 0.5 6t3.5 12t3 6h54q24 0 53 41l448 637q-44 13 -44 64q0 44 30 74.5t73 30.5q31 0 49 -18.5t18 -49.5q0 -39 -24 -67.5
t-61 -35.5v-673q0 -3 7 -3h97q1 0 -0.5 -6t-4 -12t-3.5 -6zM532 800q0 46 -48 46q-27 0 -47.5 -22.5t-20.5 -53.5q0 -46 48 -46q27 0 47.5 22.5t20.5 53.5zM371 260v306l-216 -306h216z" />
    <glyph glyph-name="AE" unicode="&#xc6;" horiz-adv-x="866" 
d="M897 705l-50 -178q0 -1 -6.5 -1.5t-12.5 0t-6 1.5q24 76 -4 116.5t-107 40.5h-97q-6 0 -8 -3l-93 -296h34q60 0 89 21t46 73q0 1 6 1.5t12 0t6 -1.5l-72 -233q0 -1 -6.5 -1.5t-12.5 0t-6 1.5q20 52 4 83.5t-74 31.5h-33l-106 -334q-1 -1 0.5 -2t4.5 -1h87q125 0 186 45
t89 131q0 1 6.5 1.5t12.5 0t6 -1.5l-62 -197q-2 -3 -4 -3h-540q-1 0 0.5 6t3.5 12t3 6h90q7 0 8 3l74 238h-184l-163 -199q-27 -37 -10 -42h74q1 0 -0.5 -6t-4 -12t-3.5 -6h-202q-1 0 0.5 6t3.5 12t3 6h40q23 0 34.5 7.5t32.5 33.5l502 619h-108q-1 0 0.5 6t4 12t3.5 6h508
q2 0 1 -3zM483 639l-285 -350h175z" />
    <glyph glyph-name="Ccedilla" unicode="&#xc7;" horiz-adv-x="605" 
d="M664 723l-63 -198q0 -2 -12.5 -2t-12.5 2q23 72 -15 124t-109 52q-65 0 -106 -24t-73 -75q-38 -63 -90.5 -215t-52.5 -233q0 -76 36.5 -111.5t112.5 -35.5q78 0 139.5 37t116.5 116q1 1 5.5 -3t9 -8.5t3.5 -4.5q-107 -152 -259 -161q-12 -8 -12 -25q0 -22 20.5 -55
t20.5 -61q0 -32 -26 -53t-56 -21q-33 0 -51.5 20.5t-18.5 51.5q0 12 10 25t22 13q21 0 21 -23q0 -9 -9 -18.5t-9 -13.5q0 -12 10.5 -21.5t26.5 -9.5q25 0 35 10.5t10 30.5q0 13 -26 43t-26 54q0 28 24 54q-99 6 -155 76t-56 189q0 118 55.5 228.5t149.5 179.5t198 69
q34 0 74.5 -15t61.5 -15q25 0 34.5 6.5t16.5 20.5q1 1 13 1t12 -1z" />
    <glyph glyph-name="Egrave" unicode="&#xc8;" 
d="M656 705l-51 -178q0 -1 -12.5 -1t-12.5 1q24 76 -3.5 116.5t-106.5 40.5h-98q-6 0 -8 -3l-92 -296h33q61 0 89.5 20.5t45.5 73.5q1 1 13 1t12 -1l-73 -233q0 -2 -12.5 -2t-12.5 2q37 116 -70 116h-33l-106 -335q0 -3 6 -3h86q86 0 143.5 24t86 60t45.5 92q0 1 6.5 1.5
t12.5 0t6 -1.5l-62 -197q-2 -3 -4 -3h-540q-1 0 0.5 6t4 12t3.5 6h89q7 0 8 3l206 654q1 1 -0.5 2t-4.5 1h-90q-1 0 0.5 6t3.5 12t3 6h487q2 0 2 -3zM554 789q1 0 0.5 -2.5t-1.5 -6.5t-2 -7.5t-2 -5.5t-2 -2q-100 24 -146 69t-46 91q0 17 10.5 28t26.5 11q13 0 21 -14.5
t16 -37t19.5 -46t38.5 -45.5t67 -32z" />
    <glyph glyph-name="Eacute" unicode="&#xc9;" 
d="M656 705l-51 -178q0 -1 -12.5 -1t-12.5 1q24 76 -3.5 116.5t-106.5 40.5h-98q-6 0 -8 -3l-92 -296h33q61 0 89.5 20.5t45.5 73.5q1 1 13 1t12 -1l-73 -233q0 -2 -12.5 -2t-12.5 2q37 116 -70 116h-33l-106 -335q0 -3 6 -3h86q86 0 143.5 24t86 60t45.5 92q0 1 6.5 1.5
t12.5 0t6 -1.5l-62 -197q-2 -3 -4 -3h-540q-1 0 0.5 6t4 12t3.5 6h89q7 0 8 3l206 654q1 1 -0.5 2t-4.5 1h-90q-1 0 0.5 6t3.5 12t3 6h487q2 0 2 -3zM629 920q0 -38 -66.5 -84.5t-199.5 -70.5q-1 1 -0.5 6.5t2.5 11.5t3 6q47 9 83.5 29t56.5 42.5t35 43.5t28 34.5t26 13.5
q15 0 23.5 -9t8.5 -23z" />
    <glyph glyph-name="Ecircumflex" unicode="&#xca;" 
d="M656 705l-51 -178q0 -1 -12.5 -1t-12.5 1q24 76 -3.5 116.5t-106.5 40.5h-98q-6 0 -8 -3l-92 -296h33q61 0 89.5 20.5t45.5 73.5q1 1 13 1t12 -1l-73 -233q0 -2 -12.5 -2t-12.5 2q37 116 -70 116h-33l-106 -335q0 -3 6 -3h86q86 0 143.5 24t86 60t45.5 92q0 1 6.5 1.5
t12.5 0t6 -1.5l-62 -197q-2 -3 -4 -3h-540q-1 0 0.5 6t4 12t3.5 6h89q7 0 8 3l206 654q1 1 -0.5 2t-4.5 1h-90q-1 0 0.5 6t3.5 12t3 6h487q2 0 2 -3zM583 779l-54 -8q-28 51 -46 127q-59 -61 -137 -126q-3 -3 -19 6q-4 2 -3 3q34 29 68.5 65t68.5 75t48 54q2 1 13 -2.5
t11 -4.5q11 -93 50 -189z" />
    <glyph glyph-name="Edieresis" unicode="&#xcb;" 
d="M656 705l-51 -178q0 -1 -12.5 -1t-12.5 1q24 76 -3.5 116.5t-106.5 40.5h-98q-6 0 -8 -3l-92 -296h33q61 0 89.5 20.5t45.5 73.5q1 1 13 1t12 -1l-73 -233q0 -2 -12.5 -2t-12.5 2q37 116 -70 116h-33l-106 -335q0 -3 6 -3h86q86 0 143.5 24t86 60t45.5 92q0 1 6.5 1.5
t12.5 0t6 -1.5l-62 -197q-2 -3 -4 -3h-540q-1 0 0.5 6t4 12t3.5 6h89q7 0 8 3l206 654q1 1 -0.5 2t-4.5 1h-90q-1 0 0.5 6t3.5 12t3 6h487q2 0 2 -3zM607 849q0 -22 -16 -39t-36 -17q-14 0 -23 9.5t-9 24.5q0 22 15.5 39t36.5 17q14 0 23 -9.5t9 -24.5zM415 849
q0 -22 -16 -39t-36 -17q-14 0 -23 9.5t-9 24.5q0 22 16 39t36 17q14 0 23 -9.5t9 -24.5z" />
    <glyph glyph-name="Igrave" unicode="&#xcc;" horiz-adv-x="385" 
d="M470 709q1 0 -0.5 -6t-4 -12t-3.5 -6h-89q-6 0 -8 -4l-206 -653q-1 -2 0.5 -3t4.5 -1h90q1 0 -0.5 -6t-3.5 -12t-3 -6h-302q-1 0 0.5 6t3.5 12t3 6h90q7 0 8 4l206 653q0 4 -6 4h-89q-1 0 0 6t3.5 12t3.5 6h302zM445 789q1 0 0.5 -2.5t-1.5 -6.5t-2 -7.5t-2 -5.5t-2 -2
q-100 24 -146 69t-46 91q0 17 10.5 28t26.5 11q13 0 21 -14.5t16 -37t19.5 -46t38.5 -45.5t67 -32z" />
    <glyph glyph-name="Iacute" unicode="&#xcd;" horiz-adv-x="385" 
d="M470 709q1 0 -0.5 -6t-4 -12t-3.5 -6h-89q-6 0 -8 -4l-206 -653q-1 -2 0.5 -3t4.5 -1h90q1 0 -0.5 -6t-3.5 -12t-3 -6h-302q-1 0 0.5 6t3.5 12t3 6h90q7 0 8 4l206 653q0 4 -6 4h-89q-1 0 0 6t3.5 12t3.5 6h302zM520 920q0 -38 -66.5 -84.5t-199.5 -70.5q-1 1 -0.5 6.5
t2.5 11.5t3 6q47 9 83.5 29t56.5 42.5t35 43.5t28 34.5t26 13.5q15 0 23.5 -9t8.5 -23z" />
    <glyph glyph-name="Icircumflex" unicode="&#xce;" horiz-adv-x="385" 
d="M470 709q1 0 -0.5 -6t-4 -12t-3.5 -6h-89q-6 0 -8 -4l-206 -653q-1 -2 0.5 -3t4.5 -1h90q1 0 -0.5 -6t-3.5 -12t-3 -6h-302q-1 0 0.5 6t3.5 12t3 6h90q7 0 8 4l206 653q0 4 -6 4h-89q-1 0 0 6t3.5 12t3.5 6h302zM474 779l-54 -8q-28 51 -46 127q-59 -61 -137 -126
q-3 -3 -19 6q-4 2 -3 3q34 29 68.5 65t68.5 75t48 54q2 1 13 -2.5t11 -4.5q11 -93 50 -189z" />
    <glyph glyph-name="Idieresis" unicode="&#xcf;" horiz-adv-x="385" 
d="M470 709q1 0 -0.5 -6t-4 -12t-3.5 -6h-89q-6 0 -8 -4l-206 -653q-1 -2 0.5 -3t4.5 -1h90q1 0 -0.5 -6t-3.5 -12t-3 -6h-302q-1 0 0.5 6t3.5 12t3 6h90q7 0 8 4l206 653q0 4 -6 4h-89q-1 0 0 6t3.5 12t3.5 6h302zM498 849q0 -22 -16 -39t-36 -17q-14 0 -23 9.5t-9 24.5
q0 22 15.5 39t36.5 17q14 0 23 -9.5t9 -24.5zM306 849q0 -22 -16 -39t-36 -17q-14 0 -23 9.5t-9 24.5q0 22 16 39t36 17q14 0 23 -9.5t9 -24.5z" />
    <glyph glyph-name="Eth" unicode="&#xd0;" horiz-adv-x="721" 
d="M148 342h-83q-1 0 0.5 6t4 12t3.5 6h83l99 315q1 1 -0.5 2t-4.5 1h-90q-1 0 0.5 6t4 12t3.5 6h274q109 0 184.5 -77.5t75.5 -194.5q0 -111 -67 -213t-170.5 -162.5t-208.5 -60.5h-312q-1 0 0.5 6t4 12t3.5 6h90q6 0 7 3zM266 366h94q1 0 -0.5 -6t-4 -12t-3.5 -6h-94
l-99 -315q-1 -1 0.5 -2t4.5 -1h87q168 0 243 115q36 55 78 186t42 210q0 64 -42.5 106.5t-136.5 42.5h-63q-7 0 -7 -3z" />
    <glyph glyph-name="Ntilde" unicode="&#xd1;" horiz-adv-x="725" 
d="M806 709q1 0 -0.5 -6t-4 -12t-3.5 -6h-79q-6 0 -8 -4l-218 -694q-1 -2 -13 -2.5t-14 2.5l-196 661l-195 -620q-1 -2 0 -3t5 -1h79q1 0 -0.5 -6t-4 -12t-3.5 -6h-196q-1 0 0.5 6t3.5 12t3 6h80q7 0 7 4l206 653q1 2 -0.5 3t-4.5 1h-79q-1 0 0.5 6t3.5 12t3 6h180
q11 0 17 -18l147 -530l164 520q1 2 -0.5 3t-4.5 1h-80q-1 0 0.5 6t4 12t3.5 6h197zM723 916q0 -48 -35.5 -80.5t-88.5 -32.5q-36 0 -94 29t-78 29q-32 0 -48 -19t-16 -46q0 -2 -12.5 -2t-12.5 2q0 48 35.5 80.5t88.5 32.5q36 0 94 -29t78 -29q32 0 48 19t16 46q0 2 12.5 2
t12.5 -2z" />
    <glyph glyph-name="Ograve" unicode="&#xd2;" horiz-adv-x="701" 
d="M682 459q0 -118 -55.5 -228.5t-149.5 -179t-198 -68.5q-108 0 -169 70.5t-61 195.5q0 118 55.5 228.5t149.5 179.5t198 69q108 0 169 -71t61 -196zM601 554q0 73 -36 110t-113 37q-58 0 -99 -21.5t-76 -76.5q-39 -64 -93 -216t-54 -233q0 -147 149 -147q58 0 99 21.5
t75 76.5q40 64 94 216.5t54 232.5zM606 799q1 0 0.5 -2.5t-1.5 -6.5t-2 -7.5t-2 -5.5t-2 -2q-100 24 -146 69t-46 91q0 17 10.5 28t26.5 11q13 0 21 -14.5t16 -37t19.5 -46t38.5 -45.5t67 -32z" />
    <glyph glyph-name="Oacute" unicode="&#xd3;" horiz-adv-x="701" 
d="M682 459q0 -118 -55.5 -228.5t-149.5 -179t-198 -68.5q-108 0 -169 70.5t-61 195.5q0 118 55.5 228.5t149.5 179.5t198 69q108 0 169 -71t61 -196zM601 554q0 73 -36 110t-113 37q-58 0 -99 -21.5t-76 -76.5q-39 -64 -93 -216t-54 -233q0 -147 149 -147q58 0 99 21.5
t75 76.5q40 64 94 216.5t54 232.5zM681 930q0 -38 -66.5 -84.5t-199.5 -70.5q-1 1 -0.5 6.5t2.5 11.5t3 6q47 9 83.5 29t56.5 42.5t35 43.5t28 34.5t26 13.5q15 0 23.5 -9t8.5 -23z" />
    <glyph glyph-name="Ocircumflex" unicode="&#xd4;" horiz-adv-x="701" 
d="M682 459q0 -118 -55.5 -228.5t-149.5 -179t-198 -68.5q-108 0 -169 70.5t-61 195.5q0 118 55.5 228.5t149.5 179.5t198 69q108 0 169 -71t61 -196zM601 554q0 73 -36 110t-113 37q-58 0 -99 -21.5t-76 -76.5q-39 -64 -93 -216t-54 -233q0 -147 149 -147q58 0 99 21.5
t75 76.5q40 64 94 216.5t54 232.5zM635 789l-54 -8q-28 51 -46 127q-59 -61 -137 -126q-3 -3 -19 6q-4 2 -3 3q34 29 68.5 65t68.5 75t48 54q2 1 13 -2.5t11 -4.5q11 -93 50 -189z" />
    <glyph glyph-name="Otilde" unicode="&#xd5;" horiz-adv-x="701" 
d="M682 459q0 -118 -55.5 -228.5t-149.5 -179t-198 -68.5q-108 0 -169 70.5t-61 195.5q0 118 55.5 228.5t149.5 179.5t198 69q108 0 169 -71t61 -196zM601 554q0 73 -36 110t-113 37q-58 0 -99 -21.5t-76 -76.5q-39 -64 -93 -216t-54 -233q0 -147 149 -147q58 0 99 21.5
t75 76.5q40 64 94 216.5t54 232.5zM719 926q0 -48 -35.5 -80.5t-88.5 -32.5q-36 0 -94 29t-78 29q-32 0 -48 -19t-16 -46q0 -2 -12.5 -2t-12.5 2q0 48 35.5 80.5t88.5 32.5q36 0 94 -29t78 -29q32 0 48 19t16 46q0 2 12.5 2t12.5 -2z" />
    <glyph glyph-name="Odieresis" unicode="&#xd6;" horiz-adv-x="701" 
d="M682 459q0 -118 -55.5 -228.5t-149.5 -179t-198 -68.5q-108 0 -169 70.5t-61 195.5q0 118 55.5 228.5t149.5 179.5t198 69q108 0 169 -71t61 -196zM601 554q0 73 -36 110t-113 37q-58 0 -99 -21.5t-76 -76.5q-39 -64 -93 -216t-54 -233q0 -147 149 -147q58 0 99 21.5
t75 76.5q40 64 94 216.5t54 232.5zM659 859q0 -22 -16 -39t-36 -17q-14 0 -23 9.5t-9 24.5q0 22 15.5 39t36.5 17q14 0 23 -9.5t9 -24.5zM467 859q0 -22 -16 -39t-36 -17q-14 0 -23 9.5t-9 24.5q0 22 16 39t36 17q14 0 23 -9.5t9 -24.5z" />
    <glyph glyph-name="multiply" unicode="&#xd7;" horiz-adv-x="398" 
d="M320 310l-99 -99l99 -99q1 -1 -4 -6.5t-10.5 -10.5t-6.5 -4l-99 99l-99 -99q-1 -1 -12.5 10t-10.5 13l99 99l-99 99q-1 1 1 3.5t5 5.5l6 6t5.5 5t3.5 1l99 -99l99 99q1 1 12.5 -10t10.5 -13z" />
    <glyph glyph-name="Oslash" unicode="&#xd8;" horiz-adv-x="701" 
d="M682 459q0 -118 -55.5 -228.5t-149.5 -179t-198 -68.5q-89 0 -147 49l-46 -60q-1 -1 -6 1.5t-9 6t-3 4.5l48 63q-67 70 -67 202q0 118 55.5 228.5t149.5 179.5t198 69q88 0 145 -48l46 60q1 1 5.5 -2t8.5 -7l4 -4q-26 -34 -47 -62q68 -71 68 -204zM576 650
q-35 51 -124 51q-58 0 -99 -21.5t-76 -76.5q-39 -64 -93 -216t-54 -233q0 -42 12 -73l33 44t78 102.5t107 140t102 133.5t83 109zM601 554q0 46 -13 75l-108 -142q-109 -142 -218 -285l-109 -142q35 -53 126 -53q58 0 99 21.5t75 76.5q40 64 94 216.5t54 232.5z" />
    <glyph glyph-name="Ugrave" unicode="&#xd9;" horiz-adv-x="730" 
d="M817 709q1 0 0 -6t-3.5 -12t-3.5 -6h-79q-6 0 -8 -4l-153 -484q-67 -214 -277 -214q-100 0 -147.5 50.5t-47.5 131.5q0 45 16 98l132 418q1 2 -0.5 3t-4.5 1h-90q-1 0 0.5 6t3.5 12t3 6h302q1 0 -0.5 -6t-3.5 -12t-3 -6h-90q-6 0 -8 -4l-130 -417q-28 -86 -28 -139
q0 -49 35 -76.5t98 -27.5q83 0 135 46t85 150l147 464q1 2 -0.5 3t-4.5 1h-79q-1 0 0 6t3.5 12t3.5 6h197zM626 789q1 0 0.5 -2.5t-1.5 -6.5t-2 -7.5t-2 -5.5t-2 -2q-100 24 -146 69t-46 91q0 17 10.5 28t26.5 11q13 0 21 -14.5t16 -37t19.5 -46t38.5 -45.5t67 -32z" />
    <glyph glyph-name="Uacute" unicode="&#xda;" horiz-adv-x="730" 
d="M817 709q1 0 0 -6t-3.5 -12t-3.5 -6h-79q-6 0 -8 -4l-153 -484q-67 -214 -277 -214q-100 0 -147.5 50.5t-47.5 131.5q0 45 16 98l132 418q1 2 -0.5 3t-4.5 1h-90q-1 0 0.5 6t3.5 12t3 6h302q1 0 -0.5 -6t-3.5 -12t-3 -6h-90q-6 0 -8 -4l-130 -417q-28 -86 -28 -139
q0 -49 35 -76.5t98 -27.5q83 0 135 46t85 150l147 464q1 2 -0.5 3t-4.5 1h-79q-1 0 0 6t3.5 12t3.5 6h197zM701 920q0 -38 -66.5 -84.5t-199.5 -70.5q-1 1 -0.5 6.5t2.5 11.5t3 6q47 9 83.5 29t56.5 42.5t35 43.5t28 34.5t26 13.5q15 0 23.5 -9t8.5 -23z" />
    <glyph glyph-name="Ucircumflex" unicode="&#xdb;" horiz-adv-x="730" 
d="M817 709q1 0 0 -6t-3.5 -12t-3.5 -6h-79q-6 0 -8 -4l-153 -484q-67 -214 -277 -214q-100 0 -147.5 50.5t-47.5 131.5q0 45 16 98l132 418q1 2 -0.5 3t-4.5 1h-90q-1 0 0.5 6t3.5 12t3 6h302q1 0 -0.5 -6t-3.5 -12t-3 -6h-90q-6 0 -8 -4l-130 -417q-28 -86 -28 -139
q0 -49 35 -76.5t98 -27.5q83 0 135 46t85 150l147 464q1 2 -0.5 3t-4.5 1h-79q-1 0 0 6t3.5 12t3.5 6h197zM655 779l-54 -8q-28 51 -46 127q-59 -61 -137 -126q-3 -3 -19 6q-4 2 -3 3q34 29 68.5 65t68.5 75t48 54q2 1 13 -2.5t11 -4.5q11 -93 50 -189z" />
    <glyph glyph-name="Udieresis" unicode="&#xdc;" horiz-adv-x="730" 
d="M817 709q1 0 0 -6t-3.5 -12t-3.5 -6h-79q-6 0 -8 -4l-153 -484q-67 -214 -277 -214q-100 0 -147.5 50.5t-47.5 131.5q0 45 16 98l132 418q1 2 -0.5 3t-4.5 1h-90q-1 0 0.5 6t3.5 12t3 6h302q1 0 -0.5 -6t-3.5 -12t-3 -6h-90q-6 0 -8 -4l-130 -417q-28 -86 -28 -139
q0 -49 35 -76.5t98 -27.5q83 0 135 46t85 150l147 464q1 2 -0.5 3t-4.5 1h-79q-1 0 0 6t3.5 12t3.5 6h197zM678 849q0 -22 -16 -39t-36 -17q-14 0 -23 9.5t-9 24.5q0 22 15.5 39t36.5 17q14 0 23 -9.5t9 -24.5zM486 849q0 -22 -16 -39t-36 -17q-14 0 -23 9.5t-9 24.5
q0 22 16 39t36 17q14 0 23 -9.5t9 -24.5z" />
    <glyph glyph-name="Yacute" unicode="&#xdd;" horiz-adv-x="632" 
d="M769 709q1 0 -0.5 -6t-4 -12t-3.5 -6h-77q-10 0 -43 -42l-250 -317l-94 -298q-1 -2 0.5 -3t4.5 -1h90q1 0 -0.5 -6t-3.5 -12t-3 -6h-302q-1 0 0.5 6t3.5 12t3 6h90q7 0 8 4l95 300l-62 353q-2 4 -7 4h-93q-1 0 0.5 6t4 12t3.5 6h323q1 0 -0.5 -6t-3.5 -12t-3 -6h-108
q-5 -1 -5 -4l53 -327l225 289q30 41 25 42h-75q-1 0 0.5 6t3.5 12t3 6h202zM655 920q0 -38 -66.5 -84.5t-199.5 -70.5q-1 1 -0.5 6.5t2.5 11.5t3 6q47 9 83.5 29t56.5 42.5t35 43.5t28 34.5t26 13.5q15 0 23.5 -9t8.5 -23z" />
    <glyph glyph-name="Thorn" unicode="&#xde;" horiz-adv-x="632" 
d="M335 589q-1 -2 0.5 -3t4.5 -1h37q233 0 233 -175q0 -109 -89.5 -182.5t-228.5 -73.5q-42 0 -89 17l-45 -143q-1 -2 0.5 -3t4.5 -1h90q1 0 -0.5 -6t-3.5 -12t-3 -6h-302q-1 0 0.5 6t3.5 12t3 6h90q7 0 8 4l206 653q1 2 -0.5 3t-4.5 1h-90q-1 0 0.5 6t4 12t3.5 6h292
q1 0 -0.5 -6t-4 -12t-3.5 -6h-80q-5 0 -7 -4zM514 472q0 49 -26 69t-92 20h-63q-6 0 -8 -4l-114 -361q39 -18 89 -18q59 0 91.5 15t55.5 50q21 32 44 107.5t23 121.5z" />
    <glyph glyph-name="germandbls" unicode="&#xdf;" horiz-adv-x="521" 
d="M512 632q0 -74 -52 -131t-134 -86h18q55 0 88.5 -43.5t33.5 -117.5q0 -103 -72.5 -183t-154.5 -80q-34 0 -57 21.5t-23 52.5q0 25 13 40.5t30 15.5q35 0 35 -30q0 -10 -7.5 -26t-7.5 -22q0 -28 25 -28q34 0 53.5 16t40.5 52q17 31 40 110t23 114q0 90 -94 90
q-18 0 -40 -11q-2 -1 -4.5 4t-3.5 10.5t0 6.5q84 35 131 96t47 139q0 42 -12.5 59.5t-43.5 17.5q-88 0 -153 -211q-14 -46 -75.5 -275.5t-81.5 -289.5q-43 -131 -86 -195t-114 -64q-41 0 -65 28t-24 66q0 23 13.5 37t32.5 14q40 0 40 -33q0 -12 -9 -30.5t-9 -25.5
q0 -32 27 -32q35 0 52.5 33.5t58.5 162.5q21 64 81 300.5t76 286.5q39 120 104 186t139 66q57 0 89 -30t32 -81z" />
    <glyph glyph-name="agrave" unicode="&#xe0;" horiz-adv-x="510" 
d="M477 441l-114 -361q-14 -44 16 -44q46 0 81 65l24 -9q-26 -50 -62.5 -75.5t-67.5 -25.5q-37 0 -57.5 22.5t-13.5 54.5q-43 -77 -122 -77q-68 0 -100 46t-32 113q0 65 36 130.5t100.5 110t138.5 44.5q26 0 48.5 -13.5t28.5 -36.5l22 38zM369 347q-3 30 -20.5 47t-44.5 17
q-43 0 -85 -30q-52 -40 -84 -122t-32 -151q0 -88 71 -88q45 0 76 37.5t70 137.5zM435 534q1 0 0.5 -2.5t-1.5 -6.5t-2 -7.5t-2 -5.5t-2 -2q-100 24 -146 69t-46 91q0 17 10.5 28t26.5 11q13 0 21 -14.5t16 -37t19.5 -46t38.5 -45.5t67 -32z" />
    <glyph glyph-name="aacute" unicode="&#xe1;" horiz-adv-x="510" 
d="M477 441l-114 -361q-14 -44 16 -44q46 0 81 65l24 -9q-26 -50 -62.5 -75.5t-67.5 -25.5q-37 0 -57.5 22.5t-13.5 54.5q-43 -77 -122 -77q-68 0 -100 46t-32 113q0 65 36 130.5t100.5 110t138.5 44.5q26 0 48.5 -13.5t28.5 -36.5l22 38zM369 347q-3 30 -20.5 47t-44.5 17
q-43 0 -85 -30q-52 -40 -84 -122t-32 -151q0 -88 71 -88q45 0 76 37.5t70 137.5zM510 665q0 -38 -66.5 -84.5t-199.5 -70.5q-1 1 -0.5 6.5t2.5 11.5t3 6q47 9 83.5 29t56.5 42.5t35 43.5t28 34.5t26 13.5q15 0 23.5 -9t8.5 -23z" />
    <glyph glyph-name="acircumflex" unicode="&#xe2;" horiz-adv-x="510" 
d="M477 441l-114 -361q-14 -44 16 -44q46 0 81 65l24 -9q-26 -50 -62.5 -75.5t-67.5 -25.5q-37 0 -57.5 22.5t-13.5 54.5q-43 -77 -122 -77q-68 0 -100 46t-32 113q0 65 36 130.5t100.5 110t138.5 44.5q26 0 48.5 -13.5t28.5 -36.5l22 38zM369 347q-3 30 -20.5 47t-44.5 17
q-43 0 -85 -30q-52 -40 -84 -122t-32 -151q0 -88 71 -88q45 0 76 37.5t70 137.5zM464 524l-54 -8q-28 51 -46 127q-59 -61 -137 -126q-3 -3 -19 6q-4 2 -3 3q34 29 68.5 65t68.5 75t48 54q2 1 13 -2.5t11 -4.5q11 -93 50 -189z" />
    <glyph glyph-name="atilde" unicode="&#xe3;" horiz-adv-x="510" 
d="M477 441l-114 -361q-14 -44 16 -44q46 0 81 65l24 -9q-26 -50 -62.5 -75.5t-67.5 -25.5q-37 0 -57.5 22.5t-13.5 54.5q-43 -77 -122 -77q-68 0 -100 46t-32 113q0 65 36 130.5t100.5 110t138.5 44.5q26 0 48.5 -13.5t28.5 -36.5l22 38zM369 347q-3 30 -20.5 47t-44.5 17
q-43 0 -85 -30q-52 -40 -84 -122t-32 -151q0 -88 71 -88q45 0 76 37.5t70 137.5zM548 661q0 -48 -35.5 -80.5t-88.5 -32.5q-36 0 -94 29t-78 29q-32 0 -48 -19t-16 -46q0 -1 -12.5 -1t-12.5 1q0 48 35.5 80.5t88.5 32.5q36 0 94 -29t78 -29q32 0 48 19t16 46q0 2 12.5 2
t12.5 -2z" />
    <glyph glyph-name="adieresis" unicode="&#xe4;" horiz-adv-x="510" 
d="M477 441l-114 -361q-14 -44 16 -44q46 0 81 65l24 -9q-26 -50 -62.5 -75.5t-67.5 -25.5q-37 0 -57.5 22.5t-13.5 54.5q-43 -77 -122 -77q-68 0 -100 46t-32 113q0 65 36 130.5t100.5 110t138.5 44.5q26 0 48.5 -13.5t28.5 -36.5l22 38zM369 347q-3 30 -20.5 47t-44.5 17
q-43 0 -85 -30q-52 -40 -84 -122t-32 -151q0 -88 71 -88q45 0 76 37.5t70 137.5zM488 594q0 -22 -16 -39t-36 -17q-14 0 -23 9.5t-9 24.5q0 22 15.5 39t36.5 17q14 0 23 -9.5t9 -24.5zM296 594q0 -22 -16 -39t-36 -17q-14 0 -23 9.5t-9 24.5q0 22 16 39t36 17q14 0 23 -9.5
t9 -24.5z" />
    <glyph glyph-name="aring" unicode="&#xe5;" horiz-adv-x="510" 
d="M477 441l-114 -361q-14 -44 16 -44q46 0 81 65l24 -9q-26 -50 -62.5 -75.5t-67.5 -25.5q-37 0 -57.5 22.5t-13.5 54.5q-43 -77 -122 -77q-68 0 -100 46t-32 113q0 65 36 130.5t100.5 110t138.5 44.5q26 0 48.5 -13.5t28.5 -36.5l22 38zM369 347q-3 30 -20.5 47t-44.5 17
q-43 0 -85 -30q-52 -40 -84 -122t-32 -151q0 -88 71 -88q45 0 76 37.5t70 137.5zM446 635q0 -44 -30 -74t-73 -30q-31 0 -49 18.5t-18 48.5q0 44 30 74.5t73 30.5q31 0 49 -18.5t18 -49.5zM419 632q0 46 -48 46q-27 0 -47.5 -22.5t-20.5 -53.5q0 -46 48 -46q27 0 47.5 22.5
t20.5 53.5z" />
    <glyph glyph-name="ae" unicode="&#xe6;" horiz-adv-x="655" 
d="M636 353q0 -62 -62.5 -106t-165.5 -44h-54q-15 -57 -15 -91q0 -97 90 -97q84 0 153 80l14 -17q-74 -87 -169 -87q-47 0 -85.5 22.5t-57.5 62.5q-67 -85 -158 -85q-61 0 -93 26.5t-32 69.5q0 53 55 96.5t160 43.5h53q21 79 21 120q0 35 -20 49t-62 14q-40 0 -40 -26
q0 -7 7.5 -19t7.5 -23q0 -15 -10 -26t-28 -11t-30.5 11t-12.5 31q0 32 31.5 59.5t75.5 27.5q47 0 84.5 -22.5t53.5 -61.5q77 84 178 84q57 0 84 -24.5t27 -56.5zM569 363q0 47 -51 47q-62 0 -96 -43t-61 -140h52q83 0 119.5 40t36.5 96zM261 203h-28q-85 0 -124.5 -35
t-39.5 -88q0 -65 63 -65q15 0 26.5 2t21.5 8.5t17 11.5t14 18t11.5 21t10 26.5t8.5 29t9.5 34.5t10.5 37z" />
    <glyph glyph-name="ccedilla" unicode="&#xe7;" horiz-adv-x="421" 
d="M396 333q0 -22 -13 -33.5t-33 -11.5t-30.5 12t-10.5 29q0 16 7.5 30t7.5 24q0 27 -52 27q-44 0 -66 -17t-43 -54q-18 -32 -41 -111t-23 -116q0 -98 89 -98q87 0 161 93l18 -13q-68 -91 -162 -102q-8 -10 -8 -22q0 -21 20.5 -55t20.5 -61q0 -32 -26 -53t-56 -21
q-33 0 -51.5 20.5t-18.5 51.5q0 12 10 25t22 13q21 0 21 -23q0 -9 -9 -18.5t-9 -13.5q0 -12 10.5 -21.5t26.5 -9.5q25 0 35 10.5t10 30.5q0 13 -26 43t-26 54q0 25 21 50q-62 5 -102.5 51t-40.5 115q0 109 73 192.5t172 83.5q53 0 87.5 -32.5t34.5 -68.5z" />
    <glyph glyph-name="egrave" unicode="&#xe8;" horiz-adv-x="425" 
d="M395 352q0 -61 -62.5 -103.5t-165.5 -42.5h-53q-16 -55 -16 -94q0 -98 90 -98q84 0 153 81l14 -17q-74 -87 -169 -87q-68 0 -112.5 46.5t-44.5 120.5q0 108 77.5 192t177.5 84q57 0 84 -25t27 -57zM328 363q0 47 -50 47q-62 0 -96 -41.5t-61 -138.5h51q84 0 120 38.5
t36 94.5zM394 534q1 0 0.5 -2.5t-1.5 -6.5t-2 -7.5t-2 -5.5t-2 -2q-100 24 -146 69t-46 91q0 17 10.5 28t26.5 11q13 0 21 -14.5t16 -37t19.5 -46t38.5 -45.5t67 -32z" />
    <glyph glyph-name="eacute" unicode="&#xe9;" horiz-adv-x="425" 
d="M395 352q0 -61 -62.5 -103.5t-165.5 -42.5h-53q-16 -55 -16 -94q0 -98 90 -98q84 0 153 81l14 -17q-74 -87 -169 -87q-68 0 -112.5 46.5t-44.5 120.5q0 108 77.5 192t177.5 84q57 0 84 -25t27 -57zM328 363q0 47 -50 47q-62 0 -96 -41.5t-61 -138.5h51q84 0 120 38.5
t36 94.5zM468 665q0 -38 -66.5 -84.5t-199.5 -70.5q-1 1 -0.5 6.5t2.5 11.5t3 6q47 9 83.5 29t56.5 42.5t35 43.5t28 34.5t26 13.5q15 0 23.5 -9t8.5 -23z" />
    <glyph glyph-name="ecircumflex" unicode="&#xea;" horiz-adv-x="425" 
d="M395 352q0 -61 -62.5 -103.5t-165.5 -42.5h-53q-16 -55 -16 -94q0 -98 90 -98q84 0 153 81l14 -17q-74 -87 -169 -87q-68 0 -112.5 46.5t-44.5 120.5q0 108 77.5 192t177.5 84q57 0 84 -25t27 -57zM328 363q0 47 -50 47q-62 0 -96 -41.5t-61 -138.5h51q84 0 120 38.5
t36 94.5zM423 524l-54 -8q-28 51 -46 127q-59 -61 -137 -126q-3 -3 -19 6q-4 2 -3 3q34 29 68.5 65t68.5 75t48 54q2 1 13 -2.5t11 -4.5q11 -93 50 -189z" />
    <glyph glyph-name="edieresis" unicode="&#xeb;" horiz-adv-x="425" 
d="M395 352q0 -61 -62.5 -103.5t-165.5 -42.5h-53q-16 -55 -16 -94q0 -98 90 -98q84 0 153 81l14 -17q-74 -87 -169 -87q-68 0 -112.5 46.5t-44.5 120.5q0 108 77.5 192t177.5 84q57 0 84 -25t27 -57zM328 363q0 47 -50 47q-62 0 -96 -41.5t-61 -138.5h51q84 0 120 38.5
t36 94.5zM446 594q0 -22 -16 -39t-36 -17q-14 0 -23 9.5t-9 24.5q0 22 15.5 39t36.5 17q14 0 23 -9.5t9 -24.5zM254 594q0 -22 -16 -39t-36 -17q-14 0 -23 9.5t-9 24.5q0 22 16 39t36 17q14 0 23 -9.5t9 -24.5z" />
    <glyph glyph-name="igrave" unicode="&#xec;" horiz-adv-x="272" 
d="M251 91q-25 -50 -62 -75t-68 -25q-38 0 -58.5 19.5t-20.5 51.5q0 39 48 147t48 154q0 16 -5 22.5t-19 6.5q-30 0 -56 -54l-24 8q21 47 51.5 67.5t58.5 20.5q69 0 69 -71q0 -43 -24 -101.5t-48 -110t-24 -77.5q0 -39 30 -39q24 0 42.5 15t38.5 50zM280 534q1 0 0.5 -2.5
t-1.5 -6.5t-2 -7.5t-2 -5.5t-2 -2q-100 24 -146 69t-46 91q0 17 10.5 28t26.5 11q13 0 21 -14.5t16 -37t19.5 -46t38.5 -45.5t67 -32z" />
    <glyph glyph-name="iacute" unicode="&#xed;" horiz-adv-x="272" 
d="M251 91q-25 -50 -62 -75t-68 -25q-38 0 -58.5 19.5t-20.5 51.5q0 39 48 147t48 154q0 16 -5 22.5t-19 6.5q-30 0 -56 -54l-24 8q21 47 51.5 67.5t58.5 20.5q69 0 69 -71q0 -43 -24 -101.5t-48 -110t-24 -77.5q0 -39 30 -39q24 0 42.5 15t38.5 50zM354 665
q0 -38 -66.5 -84.5t-199.5 -70.5q-1 1 -0.5 6.5t2.5 11.5t3 6q47 9 83.5 29t56.5 42.5t35 43.5t28 34.5t26 13.5q15 0 23.5 -9t8.5 -23z" />
    <glyph glyph-name="icircumflex" unicode="&#xee;" horiz-adv-x="272" 
d="M251 91q-25 -50 -62 -75t-68 -25q-38 0 -58.5 19.5t-20.5 51.5q0 39 48 147t48 154q0 16 -5 22.5t-19 6.5q-30 0 -56 -54l-24 8q21 47 51.5 67.5t58.5 20.5q69 0 69 -71q0 -43 -24 -101.5t-48 -110t-24 -77.5q0 -39 30 -39q24 0 42.5 15t38.5 50zM309 524l-54 -8
q-28 51 -46 127q-59 -61 -137 -126q-3 -3 -19 6q-4 2 -3 3q34 29 68.5 65t68.5 75t48 54q2 1 13 -2.5t11 -4.5q11 -93 50 -189z" />
    <glyph glyph-name="idieresis" unicode="&#xef;" horiz-adv-x="272" 
d="M251 91q-25 -50 -62 -75t-68 -25q-38 0 -58.5 19.5t-20.5 51.5q0 39 48 147t48 154q0 16 -5 22.5t-19 6.5q-30 0 -56 -54l-24 8q21 47 51.5 67.5t58.5 20.5q69 0 69 -71q0 -43 -24 -101.5t-48 -110t-24 -77.5q0 -39 30 -39q24 0 42.5 15t38.5 50zM332 594q0 -22 -16 -39
t-36 -17q-14 0 -23 9.5t-9 24.5q0 22 15.5 39t36.5 17q14 0 23 -9.5t9 -24.5zM140 594q0 -22 -16 -39t-36 -17q-14 0 -23 9.5t-9 24.5q0 22 16 39t36 17q14 0 23 -9.5t9 -24.5z" />
    <glyph glyph-name="eth" unicode="&#xf0;" horiz-adv-x="518" 
d="M382 604l-36 -17q-35 -17 -70 -35l-36 -17q-3 -1 -7.5 8t-1.5 10l142 69q-39 73 -115 101q-3 2 4 13q2 3 4 3q78 -20 142 -100l119 59q2 1 5 -3.5t4.5 -9t-0.5 -6.5l-115 -56q63 -88 63 -190q0 -81 -18 -158t-52.5 -141.5t-92 -103.5t-129.5 -39q-73 0 -116 47.5
t-43 119.5q0 103 74.5 189.5t181.5 86.5q71 0 110 -56q9 45 9 86q0 82 -26 140zM379 315q0 95 -93 95q-45 0 -72.5 -18t-47.5 -53q-18 -32 -41 -111t-23 -116q0 -98 90 -98q78 0 120 72q18 33 42.5 112.5t24.5 116.5z" />
    <glyph glyph-name="ntilde" unicode="&#xf1;" horiz-adv-x="534" 
d="M518 91q-25 -49 -63 -74.5t-70 -25.5q-39 0 -59.5 19.5t-20.5 51.5q0 39 42 130.5t42 138.5q0 18 -13.5 30t-31.5 12q-31 0 -79 -45.5t-96 -125.5l-64 -202h-78l109 345q6 21 0 34t-21 13q-30 0 -56 -54l-23 8q21 46 54 67t62 21q99 0 38 -165q41 75 102.5 120t109.5 45
q26 0 47.5 -19.5t21.5 -59.5q0 -45 -43.5 -148t-43.5 -133q0 -39 30 -39q24 0 42.5 15t38.5 50zM548 661q0 -48 -35.5 -80.5t-88.5 -32.5q-36 0 -94 29t-78 29q-32 0 -48 -19t-16 -46q0 -1 -12.5 -1t-12.5 1q0 48 35.5 80.5t88.5 32.5q36 0 94 -29t78 -29q32 0 48 19t16 46
q0 2 12.5 2t12.5 -2z" />
    <glyph glyph-name="ograve" unicode="&#xf2;" horiz-adv-x="490" 
d="M441 266q0 -108 -77.5 -191.5t-177.5 -83.5q-68 0 -112.5 46.5t-44.5 120.5q0 108 77.5 192t177.5 84q68 0 112.5 -47t44.5 -121zM372 313q0 97 -90 97q-45 0 -72.5 -18t-47.5 -53q-18 -32 -41 -111t-23 -116q0 -98 90 -98q78 0 120 72q18 33 41 111.5t23 115.5zM438 534
q1 0 0.5 -2.5t-1.5 -6.5t-2 -7.5t-2 -5.5t-2 -2q-100 24 -146 69t-46 91q0 17 10.5 28t26.5 11q13 0 21 -14.5t16 -37t19.5 -46t38.5 -45.5t67 -32z" />
    <glyph glyph-name="oacute" unicode="&#xf3;" horiz-adv-x="490" 
d="M441 266q0 -108 -77.5 -191.5t-177.5 -83.5q-68 0 -112.5 46.5t-44.5 120.5q0 108 77.5 192t177.5 84q68 0 112.5 -47t44.5 -121zM372 313q0 97 -90 97q-45 0 -72.5 -18t-47.5 -53q-18 -32 -41 -111t-23 -116q0 -98 90 -98q78 0 120 72q18 33 41 111.5t23 115.5zM512 665
q0 -38 -66.5 -84.5t-199.5 -70.5q-1 1 -0.5 6.5t2.5 11.5t3 6q47 9 83.5 29t56.5 42.5t35 43.5t28 34.5t26 13.5q15 0 23.5 -9t8.5 -23z" />
    <glyph glyph-name="ocircumflex" unicode="&#xf4;" horiz-adv-x="490" 
d="M441 266q0 -108 -77.5 -191.5t-177.5 -83.5q-68 0 -112.5 46.5t-44.5 120.5q0 108 77.5 192t177.5 84q68 0 112.5 -47t44.5 -121zM372 313q0 97 -90 97q-45 0 -72.5 -18t-47.5 -53q-18 -32 -41 -111t-23 -116q0 -98 90 -98q78 0 120 72q18 33 41 111.5t23 115.5zM467 524
l-54 -8q-28 51 -46 127q-59 -61 -137 -126q-3 -3 -19 6q-4 2 -3 3q34 29 68.5 65t68.5 75t48 54q2 1 13 -2.5t11 -4.5q11 -93 50 -189z" />
    <glyph glyph-name="otilde" unicode="&#xf5;" horiz-adv-x="490" 
d="M441 266q0 -108 -77.5 -191.5t-177.5 -83.5q-68 0 -112.5 46.5t-44.5 120.5q0 108 77.5 192t177.5 84q68 0 112.5 -47t44.5 -121zM372 313q0 97 -90 97q-45 0 -72.5 -18t-47.5 -53q-18 -32 -41 -111t-23 -116q0 -98 90 -98q78 0 120 72q18 33 41 111.5t23 115.5zM551 661
q0 -48 -35.5 -80.5t-88.5 -32.5q-36 0 -94 29t-78 29q-32 0 -48 -19t-16 -46q0 -1 -12.5 -1t-12.5 1q0 48 35.5 80.5t88.5 32.5q36 0 94 -29t78 -29q32 0 48 19t16 46q0 2 12.5 2t12.5 -2z" />
    <glyph glyph-name="odieresis" unicode="&#xf6;" horiz-adv-x="490" 
d="M441 266q0 -108 -77.5 -191.5t-177.5 -83.5q-68 0 -112.5 46.5t-44.5 120.5q0 108 77.5 192t177.5 84q68 0 112.5 -47t44.5 -121zM372 313q0 97 -90 97q-45 0 -72.5 -18t-47.5 -53q-18 -32 -41 -111t-23 -116q0 -98 90 -98q78 0 120 72q18 33 41 111.5t23 115.5zM490 594
q0 -22 -16 -39t-36 -17q-14 0 -23 9.5t-9 24.5q0 22 15.5 39t36.5 17q14 0 23 -9.5t9 -24.5zM298 594q0 -22 -16 -39t-36 -17q-14 0 -23 9.5t-9 24.5q0 22 16 39t36 17q14 0 23 -9.5t9 -24.5z" />
    <glyph glyph-name="divide" unicode="&#xf7;" horiz-adv-x="391" 
d="M337 196h-283q-2 0 -2 16.5t2 16.5h283q1 0 1 -16.5t-1 -16.5zM154 89q0 17 12 28.5t30 11.5q19 0 31.5 -11.5t12.5 -28.5t-12.5 -28.5t-31.5 -11.5q-18 0 -30 11.5t-12 28.5zM154 339q0 17 12 28.5t30 11.5q19 0 31.5 -11.5t12.5 -28.5t-12.5 -28.5t-31.5 -11.5
q-18 0 -30 11.5t-12 28.5z" />
    <glyph glyph-name="oslash" unicode="&#xf8;" horiz-adv-x="490" 
d="M441 266q0 -108 -77.5 -191.5t-177.5 -83.5q-59 0 -100 35l-40 -47q0 -1 -5 1.5t-9 6t-4 4.5l43 49q-42 47 -42 118q0 108 77.5 192t177.5 84q58 0 98 -34l42 48q0 1 4.5 -2.5t8.5 -7.5l4 -4q-22 -25 -42 -49q42 -48 42 -119zM359 373q-22 37 -77 37q-45 0 -72.5 -18
t-47.5 -53q-18 -32 -41 -111t-23 -116q0 -20 4 -36zM372 313q0 21 -4 36l-64 -74l-130 -148l-64 -74q22 -39 78 -39q78 0 120 72q18 33 41 111.5t23 115.5z" />
    <glyph glyph-name="ugrave" unicode="&#xf9;" horiz-adv-x="524" 
d="M493 431l-114 -364q-5 -14 0.5 -23t18.5 -9q24 0 42.5 14.5t38.5 50.5l24 -9q-25 -49 -65.5 -75t-71.5 -26q-99 0 -41 156q-42 -75 -95 -115t-100 -40q-37 0 -60 25t-23 68q0 44 46 147t46 132t-24 29q-31 0 -56 -54l-24 8q21 47 51.5 67.5t58.5 20.5q68 0 68 -71
q0 -39 -45 -134t-45 -142q0 -19 14.5 -32.5t33.5 -13.5q75 0 178 182l63 202zM428 534q1 0 0.5 -2.5t-1.5 -6.5t-2 -7.5t-2 -5.5t-2 -2q-100 24 -146 69t-46 91q0 17 10.5 28t26.5 11q13 0 21 -14.5t16 -37t19.5 -46t38.5 -45.5t67 -32z" />
    <glyph glyph-name="uacute" unicode="&#xfa;" horiz-adv-x="524" 
d="M493 431l-114 -364q-5 -14 0.5 -23t18.5 -9q24 0 42.5 14.5t38.5 50.5l24 -9q-25 -49 -65.5 -75t-71.5 -26q-99 0 -41 156q-42 -75 -95 -115t-100 -40q-37 0 -60 25t-23 68q0 44 46 147t46 132t-24 29q-31 0 -56 -54l-24 8q21 47 51.5 67.5t58.5 20.5q68 0 68 -71
q0 -39 -45 -134t-45 -142q0 -19 14.5 -32.5t33.5 -13.5q75 0 178 182l63 202zM502 665q0 -38 -66.5 -84.5t-199.5 -70.5q-1 1 -0.5 6.5t2.5 11.5t3 6q47 9 83.5 29t56.5 42.5t35 43.5t28 34.5t26 13.5q15 0 23.5 -9t8.5 -23z" />
    <glyph glyph-name="ucircumflex" unicode="&#xfb;" horiz-adv-x="524" 
d="M493 431l-114 -364q-5 -14 0.5 -23t18.5 -9q24 0 42.5 14.5t38.5 50.5l24 -9q-25 -49 -65.5 -75t-71.5 -26q-99 0 -41 156q-42 -75 -95 -115t-100 -40q-37 0 -60 25t-23 68q0 44 46 147t46 132t-24 29q-31 0 -56 -54l-24 8q21 47 51.5 67.5t58.5 20.5q68 0 68 -71
q0 -39 -45 -134t-45 -142q0 -19 14.5 -32.5t33.5 -13.5q75 0 178 182l63 202zM457 524l-54 -8q-28 51 -46 127q-59 -61 -137 -126q-3 -3 -19 6q-4 2 -3 3q34 29 68.5 65t68.5 75t48 54q2 1 13 -2.5t11 -4.5q11 -93 50 -189z" />
    <glyph glyph-name="udieresis" unicode="&#xfc;" horiz-adv-x="524" 
d="M493 431l-114 -364q-5 -14 0.5 -23t18.5 -9q24 0 42.5 14.5t38.5 50.5l24 -9q-25 -49 -65.5 -75t-71.5 -26q-99 0 -41 156q-42 -75 -95 -115t-100 -40q-37 0 -60 25t-23 68q0 44 46 147t46 132t-24 29q-31 0 -56 -54l-24 8q21 47 51.5 67.5t58.5 20.5q68 0 68 -71
q0 -39 -45 -134t-45 -142q0 -19 14.5 -32.5t33.5 -13.5q75 0 178 182l63 202zM480 594q0 -22 -16 -39t-36 -17q-14 0 -23 9.5t-9 24.5q0 22 15.5 39t36.5 17q14 0 23 -9.5t9 -24.5zM288 594q0 -22 -16 -39t-36 -17q-14 0 -23 9.5t-9 24.5q0 22 16 39t36 17q14 0 23 -9.5
t9 -24.5z" />
    <glyph glyph-name="yacute" unicode="&#xfd;" horiz-adv-x="456" 
d="M485 407q0 -27 -36 -38q-23 -7 -38.5 -15t-33 -26.5t-30 -38t-32.5 -61.5t-37.5 -83.5t-49.5 -118.5q-24 -59 -38.5 -93t-34 -75.5t-33.5 -64t-33 -46.5t-36.5 -35.5t-39.5 -19t-47 -7.5q-43 0 -70 24.5t-27 62.5q0 25 14 39.5t34 14.5q42 0 42 -35q0 -13 -9 -32t-9 -26
q0 -15 7 -19.5t24 -4.5q45 0 82 37.5t58.5 80.5t65.5 147q10 23 15 35l-35 205q-13 70 -28 106t-25 42t-25 6q-22 0 -47 -43l-19 15q52 95 117 95q32 0 52.5 -34.5t39.5 -138.5l23 -127q63 154 113 227t96 73q30 0 30 -28zM461 665q0 -38 -66.5 -84.5t-199.5 -70.5
q-1 1 -0.5 6.5t2.5 11.5t3 6q47 9 83.5 29t56.5 42.5t35 43.5t28 34.5t26 13.5q15 0 23.5 -9t8.5 -23z" />
    <glyph glyph-name="thorn" unicode="&#xfe;" horiz-adv-x="518" 
d="M203 322q24 48 60.5 80.5t73.5 32.5q68 0 100 -45.5t32 -111.5q0 -64 -37.5 -130.5t-101.5 -111.5t-132 -45q-62 0 -85 37l-106 -335h-79l321 1020q1 2 0 3t-5 1l-55 -1q-1 0 0.5 6t4 12t3.5 6l138 4q2 0 2 -3q-8 -27 -22 -70.5t-43.5 -135t-49.5 -152.5zM395 320
q0 86 -72 86q-73 0 -160 -220l-38 -123q15 -48 80 -48q32 0 73 30q52 40 84.5 123t32.5 152z" />
    <glyph glyph-name="ydieresis" unicode="&#xff;" horiz-adv-x="456" 
d="M485 407q0 -27 -36 -38q-23 -7 -38.5 -15t-33 -26.5t-30 -38t-32.5 -61.5t-37.5 -83.5t-49.5 -118.5q-24 -59 -38.5 -93t-34 -75.5t-33.5 -64t-33 -46.5t-36.5 -35.5t-39.5 -19t-47 -7.5q-43 0 -70 24.5t-27 62.5q0 25 14 39.5t34 14.5q42 0 42 -35q0 -13 -9 -32t-9 -26
q0 -15 7 -19.5t24 -4.5q45 0 82 37.5t58.5 80.5t65.5 147q10 23 15 35l-35 205q-13 70 -28 106t-25 42t-25 6q-22 0 -47 -43l-19 15q52 95 117 95q32 0 52.5 -34.5t39.5 -138.5l23 -127q63 154 113 227t96 73q30 0 30 -28zM439 594q0 -22 -16 -39t-36 -17q-14 0 -23 9.5
t-9 24.5q0 22 15.5 39t36.5 17q14 0 23 -9.5t9 -24.5zM247 594q0 -22 -16 -39t-36 -17q-14 0 -23 9.5t-9 24.5q0 22 16 39t36 17q14 0 23 -9.5t9 -24.5z" />
    <glyph glyph-name="Amacron" unicode="&#x100;" horiz-adv-x="621" 
d="M570 0h-286q-1 0 0.5 6t4 12t3.5 6h72q7 0 7 3v208h-235l-119 -169q-27 -38 -18 -41q3 -1 7 -1h75q1 0 -0.5 -6t-4 -12t-3.5 -6h-202q-1 0 0.5 6t3.5 12t3 6h54q24 0 53 41l463 658q1 2 7.5 2.5t12.5 -0.5t6 -2v-696q0 -3 7 -3h97q1 0 -0.5 -6t-4 -12t-3.5 -6zM371 260
v306l-216 -306h216zM668 821h-320q-3 16 0 32h320q3 -16 0 -32z" />
    <glyph glyph-name="amacron" unicode="&#x101;" horiz-adv-x="510" 
d="M477 441l-114 -361q-14 -44 16 -44q46 0 81 65l24 -9q-26 -50 -62.5 -75.5t-67.5 -25.5q-37 0 -57.5 22.5t-13.5 54.5q-43 -77 -122 -77q-68 0 -100 46t-32 113q0 65 36 130.5t100.5 110t138.5 44.5q26 0 48.5 -13.5t28.5 -36.5l22 38zM369 347q-3 30 -20.5 47t-44.5 17
q-43 0 -85 -30q-52 -40 -84 -122t-32 -151q0 -88 71 -88q45 0 76 37.5t70 137.5zM516 556h-320q-3 16 0 32h320q3 -16 0 -32z" />
    <glyph glyph-name="Abreve" unicode="&#x102;" horiz-adv-x="621" 
d="M570 0h-286q-1 0 0.5 6t4 12t3.5 6h72q7 0 7 3v208h-235l-119 -169q-27 -38 -18 -41q3 -1 7 -1h75q1 0 -0.5 -6t-4 -12t-3.5 -6h-202q-1 0 0.5 6t3.5 12t3 6h54q24 0 53 41l463 658q1 2 7.5 2.5t12.5 -0.5t6 -2v-696q0 -3 7 -3h97q1 0 -0.5 -6t-4 -12t-3.5 -6zM371 260
v306l-216 -306h216zM681 952q-19 -60 -65.5 -107.5t-118.5 -47.5q-50 0 -78.5 26t-30 60.5t6.5 68.5q0 2 12.5 2t12.5 -2q-5 -16 -5 -32t6.5 -34t29 -29.5t59.5 -11.5q110 0 147 107q0 1 6 1.5t12 0t6 -1.5z" />
    <glyph glyph-name="abreve" unicode="&#x103;" horiz-adv-x="510" 
d="M477 441l-114 -361q-14 -44 16 -44q46 0 81 65l24 -9q-26 -50 -62.5 -75.5t-67.5 -25.5q-37 0 -57.5 22.5t-13.5 54.5q-43 -77 -122 -77q-68 0 -100 46t-32 113q0 65 36 130.5t100.5 110t138.5 44.5q26 0 48.5 -13.5t28.5 -36.5l22 38zM369 347q-3 30 -20.5 47t-44.5 17
q-43 0 -85 -30q-52 -40 -84 -122t-32 -151q0 -88 71 -88q45 0 76 37.5t70 137.5zM529 687q-19 -60 -65.5 -107.5t-118.5 -47.5q-50 0 -78.5 26t-30 60.5t6.5 68.5q0 1 12.5 1t12.5 -1q-5 -16 -5 -32t6.5 -34t29 -29.5t59.5 -11.5q110 0 147 107q0 1 6 1.5t12 0t6 -1.5z" />
    <glyph glyph-name="Aogonek" unicode="&#x104;" horiz-adv-x="621" 
d="M570 0h-92q-50 -18 -90 -53.5t-40 -71.5q0 -54 58 -54q32 0 52 12v-5q1 -6 1 -12t-1 -6q-30 -28 -73 -28q-37 0 -60.5 22.5t-23.5 56.5q0 37 39 78t99 61h-155q-1 0 0.5 6t4 12t3.5 6h72q7 0 7 3v208h-235l-119 -169q-27 -38 -18 -41q3 -1 7 -1h75q1 0 -0.5 -6t-4 -12
t-3.5 -6h-202q-1 0 0.5 6t3.5 12t3 6h54q24 0 53 41l463 658q1 2 7.5 2.5t12.5 -0.5t6 -2v-696q0 -3 7 -3h97q1 0 -0.5 -6t-4 -12t-3.5 -6zM371 260v306l-216 -306h216z" />
    <glyph glyph-name="aogonek" unicode="&#x105;" horiz-adv-x="510" 
d="M477 441l-114 -361q-14 -44 16 -44q46 0 81 65l24 -9q-21 -40 -52 -66q-12 -11 -57 -41t-68.5 -55.5t-23.5 -54.5q0 -54 58 -54q33 0 52 12l1 -5v-12t-1 -6q-30 -28 -73 -28q-37 0 -60.5 23t-23.5 57t32.5 71t76.5 56q-33 4 -51 27t-11 52q-43 -77 -122 -77
q-68 0 -100 46t-32 113q0 65 36 130.5t100.5 110t138.5 44.5q26 0 48.5 -13.5t28.5 -36.5l22 38zM369 347q-3 30 -20.5 47t-44.5 17q-43 0 -85 -30q-52 -40 -84 -122t-32 -151q0 -88 71 -88q45 0 76 37.5t70 137.5z" />
    <glyph glyph-name="Cacute" unicode="&#x106;" horiz-adv-x="605" 
d="M664 723l-63 -198q0 -2 -12.5 -2t-12.5 2q23 72 -15 124t-109 52q-65 0 -106 -24t-73 -75q-38 -63 -90.5 -215t-52.5 -233q0 -76 36.5 -111.5t112.5 -35.5q78 0 139.5 37t116.5 116q1 1 5.5 -3t9 -8.5t3.5 -4.5q-113 -161 -274 -161q-108 0 -169 70.5t-61 195.5
q0 118 55.5 228.5t149.5 179.5t198 69q34 0 74.5 -15t61.5 -15q25 0 34.5 6.5t16.5 20.5q1 1 13 1t12 -1zM653 930q0 -38 -66.5 -84.5t-199.5 -70.5q-1 1 -0.5 6.5t2.5 11.5t3 6q47 9 83.5 29t56.5 42.5t35 43.5t28 34.5t26 13.5q15 0 23.5 -9t8.5 -23z" />
    <glyph glyph-name="cacute" unicode="&#x107;" horiz-adv-x="421" 
d="M396 333q0 -22 -13 -33.5t-33 -11.5t-30.5 12t-10.5 29q0 16 7.5 30t7.5 24q0 27 -52 27q-44 0 -66 -17t-43 -54q-18 -32 -41 -111t-23 -116q0 -98 89 -98q87 0 161 93l18 -13q-35 -47 -83 -75t-97 -28q-68 0 -113 46.5t-45 120.5q0 109 73 192.5t172 83.5
q53 0 87.5 -32.5t34.5 -68.5zM472 665q0 -38 -66.5 -84.5t-199.5 -70.5q-1 1 -0.5 6.5t2.5 11.5t3 6q47 9 83.5 29t56.5 42.5t35 43.5t28 34.5t26 13.5q15 0 23.5 -9t8.5 -23z" />
    <glyph glyph-name="Cdotaccent" unicode="&#x10a;" horiz-adv-x="605" 
d="M664 723l-63 -198q0 -2 -12.5 -2t-12.5 2q23 72 -15 124t-109 52q-65 0 -106 -24t-73 -75q-38 -63 -90.5 -215t-52.5 -233q0 -76 36.5 -111.5t112.5 -35.5q78 0 139.5 37t116.5 116q1 1 5.5 -3t9 -8.5t3.5 -4.5q-113 -161 -274 -161q-108 0 -169 70.5t-61 195.5
q0 118 55.5 228.5t149.5 179.5t198 69q34 0 74.5 -15t61.5 -15q25 0 34.5 6.5t16.5 20.5q1 1 13 1t12 -1zM535 859q0 -22 -16 -39t-36 -17q-14 0 -23 9.5t-9 24.5q0 22 16 39t36 17q14 0 23 -9.5t9 -24.5z" />
    <glyph glyph-name="cdotaccent" unicode="&#x10b;" horiz-adv-x="421" 
d="M396 333q0 -22 -13 -33.5t-33 -11.5t-30.5 12t-10.5 29q0 16 7.5 30t7.5 24q0 27 -52 27q-44 0 -66 -17t-43 -54q-18 -32 -41 -111t-23 -116q0 -98 89 -98q87 0 161 93l18 -13q-35 -47 -83 -75t-97 -28q-68 0 -113 46.5t-45 120.5q0 109 73 192.5t172 83.5
q53 0 87.5 -32.5t34.5 -68.5zM354 594q0 -22 -16 -39t-36 -17q-14 0 -23 9.5t-9 24.5q0 22 16 39t36 17q14 0 23 -9.5t9 -24.5z" />
    <glyph glyph-name="Ccaron" unicode="&#x10c;" horiz-adv-x="605" 
d="M664 723l-63 -198q0 -2 -12.5 -2t-12.5 2q23 72 -15 124t-109 52q-65 0 -106 -24t-73 -75q-38 -63 -90.5 -215t-52.5 -233q0 -76 36.5 -111.5t112.5 -35.5q78 0 139.5 37t116.5 116q1 1 5.5 -3t9 -8.5t3.5 -4.5q-113 -161 -274 -161q-108 0 -169 70.5t-61 195.5
q0 118 55.5 228.5t149.5 179.5t198 69q34 0 74.5 -15t61.5 -15q25 0 34.5 6.5t16.5 20.5q1 1 13 1t12 -1zM650 979q-34 -29 -68.5 -65t-68.5 -75t-48 -54q-2 -1 -13 2.5t-11 4.5q-11 93 -50 189l54 8q28 -51 46 -127q59 61 137 126q3 3 19 -6q4 -2 3 -3z" />
    <glyph glyph-name="ccaron" unicode="&#x10d;" horiz-adv-x="421" 
d="M396 333q0 -22 -13 -33.5t-33 -11.5t-30.5 12t-10.5 29q0 16 7.5 30t7.5 24q0 27 -52 27q-44 0 -66 -17t-43 -54q-18 -32 -41 -111t-23 -116q0 -98 89 -98q87 0 161 93l18 -13q-35 -47 -83 -75t-97 -28q-68 0 -113 46.5t-45 120.5q0 109 73 192.5t172 83.5
q53 0 87.5 -32.5t34.5 -68.5zM469 714q-34 -29 -68.5 -65t-68.5 -75t-48 -54q-2 -1 -13 2.5t-11 4.5q-11 93 -50 189l54 8q28 -51 46 -127q59 61 137 126q3 3 19 -6q4 -2 3 -3z" />
    <glyph glyph-name="Dcaron" unicode="&#x10e;" horiz-adv-x="721" 
d="M702 436q0 -111 -67 -213t-170.5 -162.5t-208.5 -60.5h-312q-1 0 0.5 6t4 12t3.5 6h90q6 0 7 3l206 654q1 1 -0.5 2t-4.5 1h-90q-1 0 0.5 6t4 12t3.5 6h274q109 0 184.5 -77.5t75.5 -194.5zM614 535q0 64 -42.5 106.5t-136.5 42.5h-63q-7 0 -7 -3l-206 -654q-1 -1 0.5 -2
t4.5 -1h87q168 0 243 115q36 55 78 186t42 210zM683 969q-34 -29 -68.5 -65t-68.5 -75t-48 -54q-2 -1 -13 2.5t-11 4.5q-11 93 -50 189l54 8q28 -51 46 -127q59 61 137 126q3 3 19 -6q4 -2 3 -3z" />
    <glyph glyph-name="dcaron" unicode="&#x10f;" horiz-adv-x="500" 
d="M570 734l-207 -655q-14 -43 17 -43q44 0 81 64l23 -9q-26 -50 -62.5 -75t-67.5 -25q-85 0 -69 92q-19 -38 -51.5 -65t-72.5 -27q-68 0 -100 45.5t-32 111.5q0 102 85 194t196 92q25 0 46.5 -11.5t26.5 -30.5l100 315q0 4 -6 4l-55 -2q-1 0 0.5 6t4 12t3.5 6l138 4
q2 0 2 -3zM368 344q4 31 -13 48.5t-51 17.5q-46 0 -84 -30q-52 -39 -84.5 -122t-32.5 -152q0 -86 72 -86q39 0 81.5 56t72.5 145zM686 737q31 0 31 -44q0 -39 -33 -96.5t-106 -123.5q-2 -2 -5 4q-6 13 -3 17q18 17 32 36t21.5 32.5t13.5 36t7.5 29.5t3.5 31l3 24q3 20 5 29
t9.5 17t20.5 8z" />
    <glyph glyph-name="Dcroat" unicode="&#x110;" horiz-adv-x="721" 
d="M148 342h-83q-1 0 0.5 6t4 12t3.5 6h83l99 315q1 1 -0.5 2t-4.5 1h-90q-1 0 0.5 6t4 12t3.5 6h274q109 0 184.5 -77.5t75.5 -194.5q0 -111 -67 -213t-170.5 -162.5t-208.5 -60.5h-312q-1 0 0.5 6t4 12t3.5 6h90q6 0 7 3zM266 366h94q1 0 -0.5 -6t-4 -12t-3.5 -6h-94
l-99 -315q-1 -1 0.5 -2t4.5 -1h87q168 0 243 115q36 55 78 186t42 210q0 64 -42.5 106.5t-136.5 42.5h-63q-7 0 -7 -3z" />
    <glyph glyph-name="dcroat" unicode="&#x111;" horiz-adv-x="500" 
d="M570 734l-42 -134h54q2 -1 1 -6t-3.5 -11t-4.5 -6h-55l-157 -498q-14 -43 17 -43q44 0 81 64l23 -9q-26 -50 -62.5 -75t-67.5 -25q-85 0 -69 92q-19 -38 -51.5 -65t-72.5 -27q-68 0 -100 45.5t-32 111.5q0 102 85 194t196 92q25 0 46.5 -11.5t26.5 -30.5l58 185h-164
q-1 0 0.5 5.5t3.5 11.5t3 6h165l34 107q0 4 -6 4l-55 -2q-1 0 0.5 6t4 12t3.5 6l138 4q2 0 2 -3zM368 344q4 31 -13 48.5t-51 17.5q-46 0 -84 -30q-52 -39 -84.5 -122t-32.5 -152q0 -86 72 -86q39 0 81.5 56t72.5 145z" />
    <glyph glyph-name="Emacron" unicode="&#x112;" 
d="M656 705l-51 -178q0 -1 -12.5 -1t-12.5 1q24 76 -3.5 116.5t-106.5 40.5h-98q-6 0 -8 -3l-92 -296h33q61 0 89.5 20.5t45.5 73.5q1 1 13 1t12 -1l-73 -233q0 -2 -12.5 -2t-12.5 2q37 116 -70 116h-33l-106 -335q0 -3 6 -3h86q86 0 143.5 24t86 60t45.5 92q0 1 6.5 1.5
t12.5 0t6 -1.5l-62 -197q-2 -3 -4 -3h-540q-1 0 0.5 6t4 12t3.5 6h89q7 0 8 3l206 654q1 1 -0.5 2t-4.5 1h-90q-1 0 0.5 6t3.5 12t3 6h487q2 0 2 -3zM635 811h-320q-3 16 0 32h320q3 -16 0 -32z" />
    <glyph glyph-name="emacron" unicode="&#x113;" horiz-adv-x="425" 
d="M395 352q0 -61 -62.5 -103.5t-165.5 -42.5h-53q-16 -55 -16 -94q0 -98 90 -98q84 0 153 81l14 -17q-74 -87 -169 -87q-68 0 -112.5 46.5t-44.5 120.5q0 108 77.5 192t177.5 84q57 0 84 -25t27 -57zM328 363q0 47 -50 47q-62 0 -96 -41.5t-61 -138.5h51q84 0 120 38.5
t36 94.5zM475 556h-320q-3 16 0 32h320q3 -16 0 -32z" />
    <glyph glyph-name="Ebreve" unicode="&#x114;" 
d="M656 705l-51 -178q0 -1 -12.5 -1t-12.5 1q24 76 -3.5 116.5t-106.5 40.5h-98q-6 0 -8 -3l-92 -296h33q61 0 89.5 20.5t45.5 73.5q1 1 13 1t12 -1l-73 -233q0 -2 -12.5 -2t-12.5 2q37 116 -70 116h-33l-106 -335q0 -3 6 -3h86q86 0 143.5 24t86 60t45.5 92q0 1 6.5 1.5
t12.5 0t6 -1.5l-62 -197q-2 -3 -4 -3h-540q-1 0 0.5 6t4 12t3.5 6h89q7 0 8 3l206 654q1 1 -0.5 2t-4.5 1h-90q-1 0 0.5 6t3.5 12t3 6h487q2 0 2 -3zM648 942q-19 -60 -65.5 -107.5t-118.5 -47.5q-50 0 -78.5 26t-30 60.5t6.5 68.5q0 2 12.5 2t12.5 -2q-5 -16 -5 -32
t6.5 -34t29 -29.5t59.5 -11.5q110 0 147 107q0 1 6 1.5t12 0t6 -1.5z" />
    <glyph glyph-name="ebreve" unicode="&#x115;" horiz-adv-x="425" 
d="M395 352q0 -61 -62.5 -103.5t-165.5 -42.5h-53q-16 -55 -16 -94q0 -98 90 -98q84 0 153 81l14 -17q-74 -87 -169 -87q-68 0 -112.5 46.5t-44.5 120.5q0 108 77.5 192t177.5 84q57 0 84 -25t27 -57zM328 363q0 47 -50 47q-62 0 -96 -41.5t-61 -138.5h51q84 0 120 38.5
t36 94.5zM488 687q-19 -60 -65.5 -107.5t-118.5 -47.5q-50 0 -78.5 26t-30 60.5t6.5 68.5q0 1 12.5 1t12.5 -1q-5 -16 -5 -32t6.5 -34t29 -29.5t59.5 -11.5q110 0 147 107q0 1 6 1.5t12 0t6 -1.5z" />
    <glyph glyph-name="Edotaccent" unicode="&#x116;" 
d="M656 705l-51 -178q0 -1 -12.5 -1t-12.5 1q24 76 -3.5 116.5t-106.5 40.5h-98q-6 0 -8 -3l-92 -296h33q61 0 89.5 20.5t45.5 73.5q1 1 13 1t12 -1l-73 -233q0 -2 -12.5 -2t-12.5 2q37 116 -70 116h-33l-106 -335q0 -3 6 -3h86q86 0 143.5 24t86 60t45.5 92q0 1 6.5 1.5
t12.5 0t6 -1.5l-62 -197q-2 -3 -4 -3h-540q-1 0 0.5 6t4 12t3.5 6h89q7 0 8 3l206 654q1 1 -0.5 2t-4.5 1h-90q-1 0 0.5 6t3.5 12t3 6h487q2 0 2 -3zM511 849q0 -22 -16 -39t-36 -17q-14 0 -23 9.5t-9 24.5q0 22 16 39t36 17q14 0 23 -9.5t9 -24.5z" />
    <glyph glyph-name="edotaccent" unicode="&#x117;" horiz-adv-x="425" 
d="M395 352q0 -61 -62.5 -103.5t-165.5 -42.5h-53q-16 -55 -16 -94q0 -98 90 -98q84 0 153 81l14 -17q-74 -87 -169 -87q-68 0 -112.5 46.5t-44.5 120.5q0 108 77.5 192t177.5 84q57 0 84 -25t27 -57zM328 363q0 47 -50 47q-62 0 -96 -41.5t-61 -138.5h51q84 0 120 38.5
t36 94.5zM350 594q0 -22 -16 -39t-36 -17q-14 0 -23 9.5t-9 24.5q0 22 16 39t36 17q14 0 23 -9.5t9 -24.5z" />
    <glyph glyph-name="Eogonek" unicode="&#x118;" 
d="M656 705l-51 -178q0 -1 -12.5 -1t-12.5 1q24 76 -3.5 116.5t-106.5 40.5h-98q-6 0 -8 -3l-92 -296h33q61 0 89.5 20.5t45.5 73.5q1 1 13 1t12 -1l-73 -233q0 -2 -12.5 -2t-12.5 2q37 116 -70 116h-33l-106 -335q0 -3 6 -3h86q86 0 143.5 24t86 60t45.5 92q0 1 6.5 1.5
t12.5 0t6 -1.5l-62 -197q-2 -3 -4 -3h-4q-50 -18 -90 -53.5t-40 -71.5q0 -54 58 -54q32 0 52 12v-5q1 -6 1 -12t-1 -6q-30 -28 -73 -28q-37 0 -60.5 22.5t-23.5 56.5q0 37 39 78t99 61h-497q-1 0 0.5 6t4 12t3.5 6h89q7 0 8 3l206 654q1 1 -0.5 2t-4.5 1h-90q-1 0 0.5 6
t3.5 12t3 6h487q2 0 2 -3z" />
    <glyph glyph-name="eogonek" unicode="&#x119;" horiz-adv-x="425" 
d="M395 352q0 -61 -62.5 -103.5t-165.5 -42.5h-53q-16 -55 -16 -94q0 -98 90 -98q84 0 153 81l14 -17q-31 -35 -52 -49q-11 -8 -46 -29.5t-56 -36.5t-40.5 -39t-19.5 -48q0 -55 58 -55q33 0 52 12l1 -5v-12t-1 -6q-30 -28 -73 -28q-37 0 -60.5 23t-23.5 57q0 35 36 72.5
t81 58.5q-12 -2 -25 -2q-68 0 -112.5 46.5t-44.5 120.5q0 108 77.5 192t177.5 84q57 0 84 -25t27 -57zM328 363q0 47 -50 47q-62 0 -96 -41.5t-61 -138.5h51q84 0 120 38.5t36 94.5z" />
    <glyph glyph-name="Ecaron" unicode="&#x11a;" 
d="M656 705l-51 -178q0 -1 -12.5 -1t-12.5 1q24 76 -3.5 116.5t-106.5 40.5h-98q-6 0 -8 -3l-92 -296h33q61 0 89.5 20.5t45.5 73.5q1 1 13 1t12 -1l-73 -233q0 -2 -12.5 -2t-12.5 2q37 116 -70 116h-33l-106 -335q0 -3 6 -3h86q86 0 143.5 24t86 60t45.5 92q0 1 6.5 1.5
t12.5 0t6 -1.5l-62 -197q-2 -3 -4 -3h-540q-1 0 0.5 6t4 12t3.5 6h89q7 0 8 3l206 654q1 1 -0.5 2t-4.5 1h-90q-1 0 0.5 6t3.5 12t3 6h487q2 0 2 -3zM626 969q-34 -29 -68.5 -65t-68.5 -75t-48 -54q-2 -1 -13 2.5t-11 4.5q-11 93 -50 189l54 8q28 -51 46 -127q59 61 137 126
q3 3 19 -6q4 -2 3 -3z" />
    <glyph glyph-name="ecaron" unicode="&#x11b;" horiz-adv-x="425" 
d="M395 352q0 -61 -62.5 -103.5t-165.5 -42.5h-53q-16 -55 -16 -94q0 -98 90 -98q84 0 153 81l14 -17q-74 -87 -169 -87q-68 0 -112.5 46.5t-44.5 120.5q0 108 77.5 192t177.5 84q57 0 84 -25t27 -57zM328 363q0 47 -50 47q-62 0 -96 -41.5t-61 -138.5h51q84 0 120 38.5
t36 94.5zM465 714q-34 -29 -68.5 -65t-68.5 -75t-48 -54q-2 -1 -13 2.5t-11 4.5q-11 93 -50 189l54 8q28 -51 46 -127q59 61 137 126q3 3 19 -6q4 -2 3 -3z" />
    <glyph glyph-name="Gbreve" unicode="&#x11e;" horiz-adv-x="651" 
d="M685 292q1 0 -0.5 -6t-4 -12t-3.5 -6h-90q-5 0 -7 -3l-85 -269q-2 -3 -22 -1q-5 1 -5 2q5 22 -0.5 31.5t-26.5 9.5q-14 0 -33.5 -14t-52 -27.5t-76.5 -13.5q-108 0 -169 70t-61 194q0 118 58.5 229t155 179.5t200.5 68.5q36 0 74 -15t51 -15q25 0 34.5 6.5t16.5 20.5
q1 1 13 1t12 -1l-63 -198q0 -2 -12.5 -2t-12.5 2q24 73 -9.5 124.5t-103.5 51.5q-128 0 -190 -99q-38 -63 -90.5 -215t-52.5 -233q0 -77 36.5 -111t112.5 -34q60 0 93.5 26t50.5 80l47 152q1 1 -0.5 2t-4.5 1h-90q-1 0 0.5 6t4 12t3.5 6h302zM685 952q-19 -60 -65.5 -107.5
t-118.5 -47.5q-50 0 -78.5 26t-30 60.5t6.5 68.5q0 2 12.5 2t12.5 -2q-5 -16 -5 -32t6.5 -34t29 -29.5t59.5 -11.5q110 0 147 107q0 1 6 1.5t12 0t6 -1.5z" />
    <glyph glyph-name="gbreve" unicode="&#x11f;" horiz-adv-x="483" 
d="M478 440l-139 -439q-50 -159 -115.5 -238t-163.5 -79q-55 0 -88 32.5t-33 82.5q0 30 17 50.5t44 20.5q19 0 33 -14.5t14 -32.5q0 -16 -9 -30t-19 -16q-21 -4 -21 -33q0 -36 68 -36q41 0 68 21.5t60 92.5t79 216l12 38q-50 -86 -124 -86q-68 0 -100 45.5t-32 112.5
q0 102 85 194t196 92q55 0 76 -39l18 26zM371 352q2 28 -18 43t-49 15q-46 0 -84 -30q-52 -39 -84.5 -121t-32.5 -151q0 -89 72 -89q40 0 74 41t75 143zM520 687q-19 -60 -65.5 -107.5t-118.5 -47.5q-50 0 -78.5 26t-30 60.5t6.5 68.5q0 1 12.5 1t12.5 -1q-5 -16 -5 -32
t6.5 -34t29 -29.5t59.5 -11.5q110 0 147 107q0 1 6 1.5t12 0t6 -1.5z" />
    <glyph glyph-name="Gdotaccent" unicode="&#x120;" horiz-adv-x="651" 
d="M685 292q1 0 -0.5 -6t-4 -12t-3.5 -6h-90q-5 0 -7 -3l-85 -269q-2 -3 -22 -1q-5 1 -5 2q5 22 -0.5 31.5t-26.5 9.5q-14 0 -33.5 -14t-52 -27.5t-76.5 -13.5q-108 0 -169 70t-61 194q0 118 58.5 229t155 179.5t200.5 68.5q36 0 74 -15t51 -15q25 0 34.5 6.5t16.5 20.5
q1 1 13 1t12 -1l-63 -198q0 -2 -12.5 -2t-12.5 2q24 73 -9.5 124.5t-103.5 51.5q-128 0 -190 -99q-38 -63 -90.5 -215t-52.5 -233q0 -77 36.5 -111t112.5 -34q60 0 93.5 26t50.5 80l47 152q1 1 -0.5 2t-4.5 1h-90q-1 0 0.5 6t4 12t3.5 6h302zM547 859q0 -22 -16 -39t-36 -17
q-14 0 -23 9.5t-9 24.5q0 22 16 39t36 17q14 0 23 -9.5t9 -24.5z" />
    <glyph glyph-name="gdotaccent" unicode="&#x121;" horiz-adv-x="483" 
d="M478 440l-139 -439q-50 -159 -115.5 -238t-163.5 -79q-55 0 -88 32.5t-33 82.5q0 30 17 50.5t44 20.5q19 0 33 -14.5t14 -32.5q0 -16 -9 -30t-19 -16q-21 -4 -21 -33q0 -36 68 -36q41 0 68 21.5t60 92.5t79 216l12 38q-50 -86 -124 -86q-68 0 -100 45.5t-32 112.5
q0 102 85 194t196 92q55 0 76 -39l18 26zM371 352q2 28 -18 43t-49 15q-46 0 -84 -30q-52 -39 -84.5 -121t-32.5 -151q0 -89 72 -89q40 0 74 41t75 143zM382 594q0 -22 -16 -39t-36 -17q-14 0 -23 9.5t-9 24.5q0 22 16 39t36 17q14 0 23 -9.5t9 -24.5z" />
    <glyph glyph-name="Gcommaaccent" unicode="&#x122;" horiz-adv-x="651" 
d="M685 292q1 0 -0.5 -6t-4 -12t-3.5 -6h-90q-5 0 -7 -3l-85 -269q-2 -3 -22 -1q-5 1 -5 2q5 22 -0.5 31.5t-26.5 9.5q-14 0 -33.5 -14t-52 -27.5t-76.5 -13.5q-108 0 -169 70t-61 194q0 118 58.5 229t155 179.5t200.5 68.5q36 0 74 -15t51 -15q25 0 34.5 6.5t16.5 20.5
q1 1 13 1t12 -1l-63 -198q0 -2 -12.5 -2t-12.5 2q24 73 -9.5 124.5t-103.5 51.5q-128 0 -190 -99q-38 -63 -90.5 -215t-52.5 -233q0 -77 36.5 -111t112.5 -34q60 0 93.5 26t50.5 80l47 152q1 1 -0.5 2t-4.5 1h-90q-1 0 0.5 6t4 12t3.5 6h302zM277 -117q0 -48 -50.5 -99.5
t-120.5 -65.5q-1 0 -1 11t1 11q20 4 37 12q16 8 22.5 11.5t18 12t16 18.5t4.5 23q0 12 -8 29t-8 31q0 23 13 37.5t36 14.5q20 0 30 -14t10 -32z" />
    <glyph glyph-name="gcommaaccent" unicode="&#x123;" horiz-adv-x="483" 
d="M478 440l-139 -439q-50 -159 -115.5 -238t-163.5 -79q-55 0 -88 32.5t-33 82.5q0 30 17 50.5t44 20.5q19 0 33 -14.5t14 -32.5q0 -16 -9 -30t-19 -16q-21 -4 -21 -33q0 -36 68 -36q41 0 68 21.5t60 92.5t79 216l12 38q-50 -86 -124 -86q-68 0 -100 45.5t-32 112.5
q0 102 85 194t196 92q55 0 76 -39l18 26zM371 352q2 28 -18 43t-49 15q-46 0 -84 -30q-52 -39 -84.5 -121t-32.5 -151q0 -89 72 -89q40 0 74 41t75 143zM300 585q0 48 50.5 99.5t120.5 65.5q1 0 1 -11t-1 -11q-20 -4 -37 -12q-16 -8 -22.5 -11.5t-18 -12t-16 -18.5t-4.5 -23
q0 -12 8 -29t8 -31q0 -23 -13 -37.5t-36 -14.5q-20 0 -30 14t-10 32z" />
    <glyph glyph-name="Hbar" unicode="&#x126;" horiz-adv-x="755" 
d="M840 709q1 0 0 -6t-3.5 -12t-3.5 -6h-90q-7 0 -7 -4l-32 -102h75q1 -1 0 -6t-3.5 -11t-3.5 -6h-76l-166 -528q-1 -2 0 -3t5 -1h90q1 0 -0.5 -6t-4 -12t-3.5 -6h-292q-1 0 0.5 6t3.5 12t3 6h81q6 0 7 4l104 329h-262l-103 -329q-1 -2 0.5 -3t4.5 -1h80q1 0 -0.5 -6t-4 -12
t-3.5 -6h-292q-1 0 0.5 6t4 12t3.5 6h90q6 0 7 4l166 528h-75q-1 0 0.5 6t3.5 11.5t3 5.5h76l32 102q1 2 -0.5 3t-4.5 1h-90q-1 0 0.5 6t4 12t3.5 6h292q1 0 -0.5 -6t-4 -12t-3.5 -6h-80q-7 0 -7 -4l-33 -103h261l33 103q1 2 -0.5 3t-4.5 1h-80q-1 0 0.5 6t3.5 12t3 6h292z
M270 381h261l55 176h-261z" />
    <glyph glyph-name="hbar" unicode="&#x127;" horiz-adv-x="507" 
d="M490 91q-25 -49 -63 -74.5t-70 -25.5q-39 0 -59.5 19.5t-20.5 51.5q0 39 42 130.5t42 138.5q0 18 -13.5 30t-31.5 12q-31 0 -79 -45.5t-96 -125.5l-64 -202h-78l181 577h-53q-1 0 0.5 5.5t3.5 11.5t3 6h54l34 108q0 3 -6 3l-55 -1q-1 0 0.5 6t4 12t3.5 6l138 4q2 0 2 -3
l-43 -135h166q2 -1 1 -6t-3.5 -11t-4.5 -6h-166l-97 -308q41 75 102.5 120t109.5 45q26 0 47.5 -19.5t21.5 -59.5q0 -45 -43.5 -148t-43.5 -133q0 -39 30 -39q24 0 42.5 15t38.5 50z" />
    <glyph glyph-name="Imacron" unicode="&#x12a;" horiz-adv-x="385" 
d="M470 709q1 0 -0.5 -6t-4 -12t-3.5 -6h-89q-6 0 -8 -4l-206 -653q-1 -2 0.5 -3t4.5 -1h90q1 0 -0.5 -6t-3.5 -12t-3 -6h-302q-1 0 0.5 6t3.5 12t3 6h90q7 0 8 4l206 653q0 4 -6 4h-89q-1 0 0 6t3.5 12t3.5 6h302zM526 811h-320q-3 16 0 32h320q3 -16 0 -32z" />
    <glyph glyph-name="imacron" unicode="&#x12b;" horiz-adv-x="272" 
d="M251 91q-25 -50 -62 -75t-68 -25q-38 0 -58.5 19.5t-20.5 51.5q0 39 48 147t48 154q0 16 -5 22.5t-19 6.5q-30 0 -56 -54l-24 8q21 47 51.5 67.5t58.5 20.5q69 0 69 -71q0 -43 -24 -101.5t-48 -110t-24 -77.5q0 -39 30 -39q24 0 42.5 15t38.5 50zM361 556h-320
q-3 16 0 32h320q3 -16 0 -32z" />
    <glyph glyph-name="Ibreve" unicode="&#x12c;" horiz-adv-x="385" 
d="M470 709q1 0 -0.5 -6t-4 -12t-3.5 -6h-89q-6 0 -8 -4l-206 -653q-1 -2 0.5 -3t4.5 -1h90q1 0 -0.5 -6t-3.5 -12t-3 -6h-302q-1 0 0.5 6t3.5 12t3 6h90q7 0 8 4l206 653q0 4 -6 4h-89q-1 0 0 6t3.5 12t3.5 6h302zM539 942q-19 -60 -65.5 -107.5t-118.5 -47.5
q-50 0 -78.5 26t-30 60.5t6.5 68.5q0 2 12.5 2t12.5 -2q-5 -16 -5 -32t6.5 -34t29 -29.5t59.5 -11.5q110 0 147 107q0 1 6 1.5t12 0t6 -1.5z" />
    <glyph glyph-name="ibreve" unicode="&#x12d;" horiz-adv-x="272" 
d="M251 91q-25 -50 -62 -75t-68 -25q-38 0 -58.5 19.5t-20.5 51.5q0 39 48 147t48 154q0 16 -5 22.5t-19 6.5q-30 0 -56 -54l-24 8q21 47 51.5 67.5t58.5 20.5q69 0 69 -71q0 -43 -24 -101.5t-48 -110t-24 -77.5q0 -39 30 -39q24 0 42.5 15t38.5 50zM374 687
q-19 -60 -65.5 -107.5t-118.5 -47.5q-50 0 -78.5 26t-30 60.5t6.5 68.5q0 1 12.5 1t12.5 -1q-5 -16 -5 -32t6.5 -34t29 -29.5t59.5 -11.5q110 0 147 107q0 1 6 1.5t12 0t6 -1.5z" />
    <glyph glyph-name="Iogonek" unicode="&#x12e;" horiz-adv-x="385" 
d="M470 709q1 0 -0.5 -6t-4 -12t-3.5 -6h-89q-6 0 -8 -4l-206 -653q-1 -2 0.5 -3t4.5 -1h90q1 0 -0.5 -6t-3.5 -12t-3 -6h-97q-50 -18 -90 -53.5t-40 -71.5q0 -54 58 -54q32 0 52 12v-5q1 -6 1 -12t-1 -6q-30 -28 -73 -28q-37 0 -60.5 22.5t-23.5 56.5q0 37 39 78t99 61
h-166q-1 0 0.5 6t3.5 12t3 6h90q7 0 8 4l206 653q0 4 -6 4h-89q-1 0 0 6t3.5 12t3.5 6h302z" />
    <glyph glyph-name="iogonek" unicode="&#x12f;" horiz-adv-x="272" 
d="M251 91q-19 -39 -48 -64q-13 -12 -56 -40t-69 -55t-26 -57q0 -54 58 -54q32 0 52 12v-5q1 -6 1 -12t-1 -6q-30 -28 -73 -28q-37 0 -60.5 23t-23.5 57q0 36 35 72.5t78 57.5q-37 1 -56.5 20.5t-19.5 49.5q0 39 48 147t48 154q0 16 -5 22.5t-19 6.5q-30 0 -56 -54l-24 8
q21 47 51.5 67.5t58.5 20.5q69 0 69 -71q0 -43 -24 -101.5t-48 -110t-24 -77.5q0 -39 30 -39q24 0 42.5 15t38.5 50zM270 637q0 -21 -15 -36t-36 -15t-36 15t-15 36t15 36t36 15t36 -15t15 -36z" />
    <glyph glyph-name="Idotaccent" unicode="&#x130;" horiz-adv-x="385" 
d="M470 709q1 0 -0.5 -6t-4 -12t-3.5 -6h-89q-6 0 -8 -4l-206 -653q-1 -2 0.5 -3t4.5 -1h90q1 0 -0.5 -6t-3.5 -12t-3 -6h-302q-1 0 0.5 6t3.5 12t3 6h90q7 0 8 4l206 653q0 4 -6 4h-89q-1 0 0 6t3.5 12t3.5 6h302zM402 849q0 -22 -16 -39t-36 -17q-14 0 -23 9.5t-9 24.5
q0 22 16 39t36 17q14 0 23 -9.5t9 -24.5z" />
    <glyph glyph-name="dotlessi" unicode="&#x131;" horiz-adv-x="272" 
d="M251 91q-25 -50 -62 -75t-68 -25q-38 0 -58.5 19.5t-20.5 51.5q0 39 48 147t48 154q0 16 -5 22.5t-19 6.5q-30 0 -56 -54l-24 8q21 47 51.5 67.5t58.5 20.5q69 0 69 -71q0 -43 -24 -101.5t-48 -110t-24 -77.5q0 -39 30 -39q24 0 42.5 15t38.5 50z" />
    <glyph glyph-name="Kcommaaccent" unicode="&#x136;" horiz-adv-x="647" 
d="M742 709q1 0 0 -6t-3.5 -12t-3.5 -6h-66q-9 0 -57 -42l-259 -234l158 -381q2 -4 8 -4h92q1 0 -0.5 -6t-4 -12t-3.5 -6h-302q-1 0 0.5 6t4 12t3.5 6h77q4 0 4 4l-129 323l-102 -323q-1 -2 0.5 -3t4.5 -1h79q1 0 -0.5 -6t-3.5 -12t-3 -6h-292q-1 0 0.5 6t4 12t3.5 6h90
q6 0 7 4l206 653q1 2 -0.5 3t-4.5 1h-90q-1 0 0.5 6t4 12t3.5 6h291q1 0 -0.5 -6t-3.5 -12t-3 -6h-80q-7 0 -7 -4l-102 -324l313 286q34 29 30 40q-1 2 -5 2h-57q-1 0 0.5 6t3.5 12t3 6h191zM294 -107q0 -48 -50.5 -99.5t-120.5 -65.5q-1 0 -1 11t1 11q20 4 37 12
q16 8 22.5 11.5t18 12t16 18.5t4.5 23q0 12 -8 29t-8 31q0 23 13 37.5t36 14.5q20 0 30 -14t10 -32z" />
    <glyph glyph-name="kcommaaccent" unicode="&#x137;" horiz-adv-x="475" 
d="M452 380q0 -22 -14 -40.5t-35 -18.5q-35 0 -35 29q0 9 5.5 17.5t5.5 13.5q0 13 -18 13q-19 0 -37.5 -22.5t-43 -56.5t-49.5 -52q29 -15 43 -45.5t16.5 -62.5t6 -62.5t19.5 -49.5t50 -19q22 0 34 12t12 31q0 14 -23 27t-23 32q0 14 11 25t29 11q20 0 33.5 -17t13.5 -35
q0 -52 -33 -85.5t-91 -33.5q-44 0 -70.5 26t-36.5 63t-17 73.5t-18.5 61.5t-33.5 23l-75 -238h-79l223 708q0 3 -6 3l-55 -1q-1 0 0.5 6t4 12t3.5 6l138 4q2 0 2 -3l-148 -472q34 2 61 20.5t44.5 43.5t34.5 49t39.5 41t49.5 17q62 0 62 -54zM214 -107q0 -48 -50.5 -99.5
t-120.5 -65.5q-1 0 -1 11t1 11q20 4 37 12q16 8 22.5 11.5t18 12t16 18.5t4.5 23q0 12 -8 29t-8 31q0 23 13 37.5t36 14.5q20 0 30 -14t10 -32z" />
    <glyph glyph-name="Lacute" unicode="&#x139;" horiz-adv-x="559" 
d="M512 201l-62 -198q0 -3 -3 -3h-503q-1 0 0.5 6t3.5 12t3 6h90q7 0 8 4l206 653q0 4 -6 4h-89q-1 0 0.5 6t3.5 12t3 6h302q1 0 -0.5 -6t-3.5 -12t-3 -6h-90q-6 0 -8 -4l-206 -653q-1 -2 0.5 -3t4.5 -1h49q125 0 186.5 45.5t88.5 131.5q0 1 6.5 1.5t12.5 0t6 -1.5zM525 920
q0 -38 -66.5 -84.5t-199.5 -70.5q-1 1 -0.5 6.5t2.5 11.5t3 6q47 9 83.5 29t56.5 42.5t35 43.5t28 34.5t26 13.5q15 0 23.5 -9t8.5 -23z" />
    <glyph glyph-name="lacute" unicode="&#x13a;" horiz-adv-x="269" 
d="M319 735l-210 -668q-5 -14 0.5 -23t18.5 -9q45 0 81 65l24 -9q-26 -50 -62.5 -75t-67.5 -25q-46 0 -61 33.5t3 88.5l187 595q1 1 -0.5 2t-4.5 1l-56 -1q-1 0 0.5 6t4 12t3.5 6l138 4q3 0 2 -3zM494 943q0 -38 -66.5 -84.5t-199.5 -70.5q-1 1 -0.5 6.5t2.5 11.5t3 6
q47 9 83.5 29t56.5 42.5t35 43.5t28 34.5t26 13.5q15 0 23.5 -9t8.5 -23z" />
    <glyph glyph-name="Lcommaaccent" unicode="&#x13b;" horiz-adv-x="559" 
d="M512 201l-62 -198q0 -3 -3 -3h-503q-1 0 0.5 6t3.5 12t3 6h90q7 0 8 4l206 653q0 4 -6 4h-89q-1 0 0.5 6t3.5 12t3 6h302q1 0 -0.5 -6t-3.5 -12t-3 -6h-90q-6 0 -8 -4l-206 -653q-1 -2 0.5 -3t4.5 -1h49q125 0 186.5 45.5t88.5 131.5q0 1 6.5 1.5t12.5 0t6 -1.5z
M253 -107q0 -48 -50.5 -99.5t-120.5 -65.5q-1 0 -1 11t1 11q20 4 37 12q16 8 22.5 11.5t18 12t16 18.5t4.5 23q0 12 -8 29t-8 31q0 23 13 37.5t36 14.5q20 0 30 -14t10 -32z" />
    <glyph glyph-name="lcommaaccent" unicode="&#x13c;" horiz-adv-x="269" 
d="M319 735l-210 -668q-5 -14 0.5 -23t18.5 -9q45 0 81 65l24 -9q-26 -50 -62.5 -75t-67.5 -25q-46 0 -61 33.5t3 88.5l187 595q1 1 -0.5 2t-4.5 1l-56 -1q-1 0 0.5 6t4 12t3.5 6l138 4q3 0 2 -3zM91 -107q0 -48 -50.5 -99.5t-120.5 -65.5q-1 0 -1 11t1 11q20 4 37 12
q16 8 22.5 11.5t18 12t16 18.5t4.5 23q0 12 -8 29t-8 31q0 23 13 37.5t36 14.5q20 0 30 -14t10 -32z" />
    <glyph glyph-name="Lcaron" unicode="&#x13d;" horiz-adv-x="559" 
d="M512 201l-62 -198q0 -3 -3 -3h-503q-1 0 0.5 6t3.5 12t3 6h90q7 0 8 4l206 653q0 4 -6 4h-89q-1 0 0.5 6t3.5 12t3 6h302q1 0 -0.5 -6t-3.5 -12t-3 -6h-90q-6 0 -8 -4l-206 -653q-1 -2 0.5 -3t4.5 -1h49q125 0 186.5 45.5t88.5 131.5q0 1 6.5 1.5t12.5 0t6 -1.5zM549 709
q31 0 31 -44q0 -39 -33 -96.5t-106 -123.5q-2 -2 -5 4q-6 13 -3 17q18 17 32 36t21.5 32.5t13.5 36t7.5 29.5t4.5 31l2 24q3 20 5 29t9.5 17t20.5 8z" />
    <glyph glyph-name="lcaron" unicode="&#x13e;" horiz-adv-x="269" 
d="M319 735l-210 -668q-5 -14 0.5 -23t18.5 -9q45 0 81 65l24 -9q-26 -50 -62.5 -75t-67.5 -25q-46 0 -61 33.5t3 88.5l187 595q1 1 -0.5 2t-4.5 1l-56 -1q-1 0 0.5 6t4 12t3.5 6l138 4q3 0 2 -3zM434 738q31 0 31 -44q0 -39 -33 -96.5t-106 -123.5q-2 -2 -5 4q-6 13 -3 17
q18 17 32 36t21.5 32.5t13.5 36t7.5 29.5t3.5 31l3 24q3 20 5 29t9.5 17t20.5 8z" />
    <glyph glyph-name="Ldot" unicode="&#x13f;" horiz-adv-x="552" 
d="M512 201l-62 -198q0 -3 -3 -3h-503q-1 0 0.5 6t3.5 12t3 6h90q7 0 8 4l206 653q0 4 -6 4h-89q-1 0 0.5 6t3.5 12t3 6h302q1 0 -0.5 -6t-3.5 -12t-3 -6h-90q-6 0 -8 -4l-206 -653q-1 -2 0.5 -3t4.5 -1h49q125 0 186.5 45.5t88.5 131.5q0 1 6.5 1.5t12.5 0t6 -1.5zM531 379
q0 -26 -18.5 -45.5t-42.5 -19.5q-17 0 -27.5 11t-10.5 29q0 26 18.5 46t42.5 20q17 0 27.5 -11.5t10.5 -29.5z" />
    <glyph glyph-name="ldot" unicode="&#x140;" horiz-adv-x="332" 
d="M319 735l-210 -668q-5 -14 0.5 -23t18.5 -9q45 0 81 65l24 -9q-26 -50 -62.5 -75t-67.5 -25q-46 0 -61 33.5t3 88.5l187 595q1 1 -0.5 2t-4.5 1l-56 -1q-1 0 0.5 6t4 12t3.5 6l138 4q3 0 2 -3zM375 366q0 -26 -18.5 -45.5t-42.5 -19.5q-17 0 -27.5 11t-10.5 29
q0 26 18.5 46t42.5 20q17 0 27.5 -11.5t10.5 -29.5z" />
    <glyph glyph-name="Lslash" unicode="&#x141;" horiz-adv-x="559" 
d="M36 245q-2 -1 -5 4t-4.5 10t0.5 7l115 56l113 359q0 4 -6 4h-89q-1 0 0.5 6t3.5 12t3 6h302q1 0 -0.5 -6t-3.5 -12t-3 -6h-90q-6 0 -8 -4q-6 -19 -16 -49.5t-30.5 -95.5t-33.5 -108l-14 -43l147 71q1 1 4.5 -4t5.5 -10.5t0 -6.5l-166 -81l-25 -82l-52 -162l-26 -82
q-1 -2 0.5 -3t4.5 -1h49q125 0 186.5 45.5t88.5 131.5q0 1 6.5 1.5t12.5 0t6 -1.5l-62 -198q0 -3 -3 -3h-503q-1 0 0.5 6t3.5 12t3 6h90q7 0 8 4l83 264z" />
    <glyph glyph-name="lslash" unicode="&#x142;" horiz-adv-x="279" 
d="M340 484q1 1 5 -3.5t6.5 -9.5t1.5 -6l-154 -112l-90 -286q-5 -14 0.5 -23t18.5 -9q45 0 81 65l24 -9q-26 -50 -62.5 -75t-67.5 -25q-46 0 -61 33.5t3 88.5l52 167l-96 -70q-1 -1 -5 3.5t-6 9.5t-1 6l119 87l124 392q1 1 -0.5 2t-4.5 1l-56 -1q-1 0 0.5 6t4 12t3.5 6
l138 4q3 0 2 -3l-108 -345z" />
    <glyph glyph-name="Nacute" unicode="&#x143;" horiz-adv-x="725" 
d="M806 709q1 0 -0.5 -6t-4 -12t-3.5 -6h-79q-6 0 -8 -4l-218 -694q-1 -2 -13 -2.5t-14 2.5l-196 661l-195 -620q-1 -2 0 -3t5 -1h79q1 0 -0.5 -6t-4 -12t-3.5 -6h-196q-1 0 0.5 6t3.5 12t3 6h80q7 0 7 4l206 653q1 2 -0.5 3t-4.5 1h-79q-1 0 0.5 6t3.5 12t3 6h180
q11 0 17 -18l147 -530l164 520q1 2 -0.5 3t-4.5 1h-80q-1 0 0.5 6t4 12t3.5 6h197zM685 920q0 -38 -66.5 -84.5t-199.5 -70.5q-1 1 -0.5 6.5t2.5 11.5t3 6q47 9 83.5 29t56.5 42.5t35 43.5t28 34.5t26 13.5q15 0 23.5 -9t8.5 -23z" />
    <glyph glyph-name="nacute" unicode="&#x144;" horiz-adv-x="534" 
d="M518 91q-25 -49 -63 -74.5t-70 -25.5q-39 0 -59.5 19.5t-20.5 51.5q0 39 42 130.5t42 138.5q0 18 -13.5 30t-31.5 12q-31 0 -79 -45.5t-96 -125.5l-64 -202h-78l109 345q6 21 0 34t-21 13q-30 0 -56 -54l-23 8q21 46 54 67t62 21q99 0 38 -165q41 75 102.5 120t109.5 45
q26 0 47.5 -19.5t21.5 -59.5q0 -45 -43.5 -148t-43.5 -133q0 -39 30 -39q24 0 42.5 15t38.5 50zM509 665q0 -38 -66.5 -84.5t-199.5 -70.5q-1 1 -0.5 6.5t2.5 11.5t3 6q47 9 83.5 29t56.5 42.5t35 43.5t28 34.5t26 13.5q15 0 23.5 -9t8.5 -23z" />
    <glyph glyph-name="Ncommaaccent" unicode="&#x145;" horiz-adv-x="725" 
d="M806 709q1 0 -0.5 -6t-4 -12t-3.5 -6h-79q-6 0 -8 -4l-218 -694q-1 -2 -13 -2.5t-14 2.5l-196 661l-195 -620q-1 -2 0 -3t5 -1h79q1 0 -0.5 -6t-4 -12t-3.5 -6h-196q-1 0 0.5 6t3.5 12t3 6h80q7 0 7 4l206 653q1 2 -0.5 3t-4.5 1h-79q-1 0 0.5 6t3.5 12t3 6h180
q11 0 17 -18l147 -530l164 520q1 2 -0.5 3t-4.5 1h-80q-1 0 0.5 6t4 12t3.5 6h197zM301 -107q0 -48 -50.5 -99.5t-120.5 -65.5q-1 0 -1 11t1 11q20 4 37 12q16 8 22.5 11.5t18 12t16 18.5t4.5 23q0 12 -8 29t-8 31q0 23 13 37.5t36 14.5q20 0 30 -14t10 -32z" />
    <glyph glyph-name="ncommaaccent" unicode="&#x146;" horiz-adv-x="534" 
d="M518 91q-25 -49 -63 -74.5t-70 -25.5q-39 0 -59.5 19.5t-20.5 51.5q0 39 42 130.5t42 138.5q0 18 -13.5 30t-31.5 12q-31 0 -79 -45.5t-96 -125.5l-64 -202h-78l109 345q6 21 0 34t-21 13q-30 0 -56 -54l-23 8q21 46 54 67t62 21q99 0 38 -165q41 75 102.5 120t109.5 45
q26 0 47.5 -19.5t21.5 -59.5q0 -45 -43.5 -148t-43.5 -133q0 -39 30 -39q24 0 42.5 15t38.5 50zM236 -107q0 -48 -50.5 -99.5t-120.5 -65.5q-1 0 -1 11t1 11q20 4 37 12q16 8 22.5 11.5t18 12t16 18.5t4.5 23q0 12 -8 29t-8 31q0 23 13 37.5t36 14.5q20 0 30 -14t10 -32z
" />
    <glyph glyph-name="Ncaron" unicode="&#x147;" horiz-adv-x="725" 
d="M806 709q1 0 -0.5 -6t-4 -12t-3.5 -6h-79q-6 0 -8 -4l-218 -694q-1 -2 -13 -2.5t-14 2.5l-196 661l-195 -620q-1 -2 0 -3t5 -1h79q1 0 -0.5 -6t-4 -12t-3.5 -6h-196q-1 0 0.5 6t3.5 12t3 6h80q7 0 7 4l206 653q1 2 -0.5 3t-4.5 1h-79q-1 0 0.5 6t3.5 12t3 6h180
q11 0 17 -18l147 -530l164 520q1 2 -0.5 3t-4.5 1h-80q-1 0 0.5 6t4 12t3.5 6h197zM682 969q-34 -29 -68.5 -65t-68.5 -75t-48 -54q-2 -1 -13 2.5t-11 4.5q-11 93 -50 189l54 8q28 -51 46 -127q59 61 137 126q3 3 19 -6q4 -2 3 -3z" />
    <glyph glyph-name="ncaron" unicode="&#x148;" horiz-adv-x="534" 
d="M518 91q-25 -49 -63 -74.5t-70 -25.5q-39 0 -59.5 19.5t-20.5 51.5q0 39 42 130.5t42 138.5q0 18 -13.5 30t-31.5 12q-31 0 -79 -45.5t-96 -125.5l-64 -202h-78l109 345q6 21 0 34t-21 13q-30 0 -56 -54l-23 8q21 46 54 67t62 21q99 0 38 -165q41 75 102.5 120t109.5 45
q26 0 47.5 -19.5t21.5 -59.5q0 -45 -43.5 -148t-43.5 -133q0 -39 30 -39q24 0 42.5 15t38.5 50zM506 714q-34 -29 -68.5 -65t-68.5 -75t-48 -54q-2 -1 -13 2.5t-11 4.5q-11 93 -50 189l54 8q28 -51 46 -127q59 61 137 126q3 3 19 -6q4 -2 3 -3z" />
    <glyph glyph-name="Omacron" unicode="&#x14c;" horiz-adv-x="701" 
d="M682 459q0 -118 -55.5 -228.5t-149.5 -179t-198 -68.5q-108 0 -169 70.5t-61 195.5q0 118 55.5 228.5t149.5 179.5t198 69q108 0 169 -71t61 -196zM601 554q0 73 -36 110t-113 37q-58 0 -99 -21.5t-76 -76.5q-39 -64 -93 -216t-54 -233q0 -147 149 -147q58 0 99 21.5
t75 76.5q40 64 94 216.5t54 232.5zM687 821h-320q-3 16 0 32h320q3 -16 0 -32z" />
    <glyph glyph-name="omacron" unicode="&#x14d;" horiz-adv-x="490" 
d="M441 266q0 -108 -77.5 -191.5t-177.5 -83.5q-68 0 -112.5 46.5t-44.5 120.5q0 108 77.5 192t177.5 84q68 0 112.5 -47t44.5 -121zM372 313q0 97 -90 97q-45 0 -72.5 -18t-47.5 -53q-18 -32 -41 -111t-23 -116q0 -98 90 -98q78 0 120 72q18 33 41 111.5t23 115.5zM519 556
h-320q-3 16 0 32h320q3 -16 0 -32z" />
    <glyph glyph-name="Obreve" unicode="&#x14e;" horiz-adv-x="701" 
d="M682 459q0 -118 -55.5 -228.5t-149.5 -179t-198 -68.5q-108 0 -169 70.5t-61 195.5q0 118 55.5 228.5t149.5 179.5t198 69q108 0 169 -71t61 -196zM601 554q0 73 -36 110t-113 37q-58 0 -99 -21.5t-76 -76.5q-39 -64 -93 -216t-54 -233q0 -147 149 -147q58 0 99 21.5
t75 76.5q40 64 94 216.5t54 232.5zM701 952q-19 -60 -65.5 -107.5t-118.5 -47.5q-50 0 -78.5 26t-30 60.5t6.5 68.5q0 2 12.5 2t12.5 -2q-5 -16 -5 -32t6.5 -34t29 -29.5t59.5 -11.5q110 0 147 107q0 1 6 1.5t12 0t6 -1.5z" />
    <glyph glyph-name="obreve" unicode="&#x14f;" horiz-adv-x="490" 
d="M441 266q0 -108 -77.5 -191.5t-177.5 -83.5q-68 0 -112.5 46.5t-44.5 120.5q0 108 77.5 192t177.5 84q68 0 112.5 -47t44.5 -121zM372 313q0 97 -90 97q-45 0 -72.5 -18t-47.5 -53q-18 -32 -41 -111t-23 -116q0 -98 90 -98q78 0 120 72q18 33 41 111.5t23 115.5zM532 687
q-19 -60 -65.5 -107.5t-118.5 -47.5q-50 0 -78.5 26t-30 60.5t6.5 68.5q0 1 12.5 1t12.5 -1q-5 -16 -5 -32t6.5 -34t29 -29.5t59.5 -11.5q110 0 147 107q0 1 6 1.5t12 0t6 -1.5z" />
    <glyph glyph-name="Ohungarumlaut" unicode="&#x150;" horiz-adv-x="701" 
d="M682 459q0 -118 -55.5 -228.5t-149.5 -179t-198 -68.5q-108 0 -169 70.5t-61 195.5q0 118 55.5 228.5t149.5 179.5t198 69q108 0 169 -71t61 -196zM601 554q0 73 -36 110t-113 37q-58 0 -99 -21.5t-76 -76.5q-39 -64 -93 -216t-54 -233q0 -147 149 -147q58 0 99 21.5
t75 76.5q40 64 94 216.5t54 232.5zM784 929q0 -38 -66.5 -84.5t-199.5 -70.5q-1 1 -0.5 6.5t2.5 11.5t3 6q47 9 83.5 29t56.5 42.5t35 43.5t28 34.5t26 13.5q15 0 23.5 -9t8.5 -23zM590 929q0 -38 -66.5 -84.5t-199.5 -70.5q-1 1 -0.5 6.5t2.5 11.5t3 6q47 9 83.5 29
t56.5 42.5t35 43.5t28 34.5t26 13.5q15 0 23.5 -9t8.5 -23z" />
    <glyph glyph-name="ohungarumlaut" unicode="&#x151;" horiz-adv-x="490" 
d="M441 266q0 -108 -77.5 -191.5t-177.5 -83.5q-68 0 -112.5 46.5t-44.5 120.5q0 108 77.5 192t177.5 84q68 0 112.5 -47t44.5 -121zM372 313q0 97 -90 97q-45 0 -72.5 -18t-47.5 -53q-18 -32 -41 -111t-23 -116q0 -98 90 -98q78 0 120 72q18 33 41 111.5t23 115.5zM615 664
q0 -38 -66.5 -84.5t-199.5 -70.5q-1 1 -0.5 6.5t2.5 11.5t3 6q47 9 83.5 29t56.5 42.5t35 43.5t28 34.5t26 13.5q15 0 23.5 -9t8.5 -23zM421 664q0 -38 -66.5 -84.5t-199.5 -70.5q-1 1 -0.5 6.5t2.5 11.5t3 6q47 9 83.5 29t56.5 42.5t35 43.5t28 34.5t26 13.5q15 0 23.5 -9
t8.5 -23z" />
    <glyph glyph-name="OE" unicode="&#x152;" horiz-adv-x="940" 
d="M972 705l-51 -178q0 -1 -6 -1.5t-12 0t-6 1.5q23 76 -4.5 116.5t-106.5 40.5h-98q-7 0 -7 -3l-93 -296h33q61 0 89.5 20.5t45.5 73.5q0 1 6.5 1.5t12.5 0t6 -1.5l-73 -233q0 -1 -6 -1.5t-12 0t-6 1.5q19 52 3.5 83.5t-73.5 31.5h-34l-105 -334q-1 -2 0 -2.5t5 -0.5h86
q86 0 143.5 24t86 60t45.5 92q0 1 6.5 1.5t12.5 0t6 -1.5l-62 -197q0 -3 -4 -3h-491q-109 0 -184.5 77.5t-75.5 194.5q0 111 67 213t170.5 162.5t208.5 60.5h475q2 0 2 -3zM571 681q1 1 -0.5 2t-4.5 1h-67q-167 0 -242 -115q-36 -54 -78 -185t-42 -211q0 -64 42.5 -106.5
t135.5 -42.5h43q6 0 7 3z" />
    <glyph glyph-name="oe" unicode="&#x153;" horiz-adv-x="707" 
d="M690 353q0 -62 -62.5 -104.5t-165.5 -42.5h-53q-16 -55 -16 -94q0 -97 90 -97q84 0 153 80l14 -17q-74 -87 -169 -87q-91 0 -134 77q-74 -77 -171 -77q-68 0 -112.5 47t-44.5 120q0 108 77.5 192t177.5 84q91 0 134 -77q77 77 171 77q57 0 84 -24.5t27 -56.5zM623 363
q0 47 -50 47q-62 0 -96 -41.5t-61 -138.5h51q84 0 120 38.5t36 94.5zM361 313q0 97 -89 97q-45 0 -72.5 -18t-47.5 -53q-18 -32 -41 -111t-23 -116q0 -97 90 -97q79 0 120 71q18 32 40.5 111t22.5 116z" />
    <glyph glyph-name="Racute" unicode="&#x154;" horiz-adv-x="639" 
d="M622 555q0 -75 -61.5 -129t-172.5 -58q160 0 160 -120q0 -30 -17.5 -94.5t-17.5 -84.5q0 -54 44 -54q43 0 61 15q1 0 4 -5.5t4.5 -11.5t0.5 -6q-45 -24 -107 -24q-115 0 -115 92q0 30 24.5 121.5t24.5 110.5q0 50 -129 50h-62l-104 -329q-1 -2 0.5 -3t4.5 -1h90
q1 0 -0.5 -6t-4 -12t-3.5 -6h-301q-1 0 0 6t3.5 12t3.5 6h90q7 0 7 4l206 653q1 2 0 3t-5 1h-90q-1 0 0.5 6t4 12t3.5 6h250q98 0 151 -40.5t53 -113.5zM534 619q0 36 -26.5 51t-86.5 15h-48q-6 0 -8 -4l-95 -300h69q99 0 136 56q20 30 39.5 86.5t19.5 95.5zM640 920
q0 -38 -66.5 -84.5t-199.5 -70.5q-1 1 -0.5 6.5t2.5 11.5t3 6q47 9 83.5 29t56.5 42.5t35 43.5t28 34.5t26 13.5q15 0 23.5 -9t8.5 -23z" />
    <glyph glyph-name="racute" unicode="&#x155;" horiz-adv-x="405" 
d="M404 358q0 -23 -15.5 -44.5t-36.5 -21.5t-32 11t-11 26q0 13 4.5 22t4.5 12q0 22 -18 22q-24 0 -54.5 -41.5t-77.5 -141.5l-63 -202h-79l109 345q6 21 0 34t-21 13q-30 0 -56 -54l-23 8q21 46 54 67t63 21q43 0 56.5 -33.5t-8.5 -97.5q61 131 134 131q33 0 51.5 -22.5
t18.5 -53.5zM468 665q0 -38 -66.5 -84.5t-199.5 -70.5q-1 1 -0.5 6.5t2.5 11.5t3 6q47 9 83.5 29t56.5 42.5t35 43.5t28 34.5t26 13.5q15 0 23.5 -9t8.5 -23z" />
    <glyph glyph-name="Rcommaaccent" unicode="&#x156;" horiz-adv-x="639" 
d="M622 555q0 -75 -61.5 -129t-172.5 -58q160 0 160 -120q0 -30 -17.5 -94.5t-17.5 -84.5q0 -54 44 -54q43 0 61 15q1 0 4 -5.5t4.5 -11.5t0.5 -6q-45 -24 -107 -24q-115 0 -115 92q0 30 24.5 121.5t24.5 110.5q0 50 -129 50h-62l-104 -329q-1 -2 0.5 -3t4.5 -1h90
q1 0 -0.5 -6t-4 -12t-3.5 -6h-301q-1 0 0 6t3.5 12t3.5 6h90q7 0 7 4l206 653q1 2 0 3t-5 1h-90q-1 0 0.5 6t4 12t3.5 6h250q98 0 151 -40.5t53 -113.5zM534 619q0 36 -26.5 51t-86.5 15h-48q-6 0 -8 -4l-95 -300h69q99 0 136 56q20 30 39.5 86.5t19.5 95.5zM304 -107
q0 -48 -50.5 -99.5t-120.5 -65.5q-1 0 -1 11t1 11q20 4 37 12q16 8 22.5 11.5t18 12t16 18.5t4.5 23q0 12 -8 29t-8 31q0 23 13 37.5t36 14.5q20 0 30 -14t10 -32z" />
    <glyph glyph-name="rcommaaccent" unicode="&#x157;" horiz-adv-x="405" 
d="M404 358q0 -23 -15.5 -44.5t-36.5 -21.5t-32 11t-11 26q0 13 4.5 22t4.5 12q0 22 -18 22q-24 0 -54.5 -41.5t-77.5 -141.5l-63 -202h-79l109 345q6 21 0 34t-21 13q-30 0 -56 -54l-23 8q21 46 54 67t63 21q43 0 56.5 -33.5t-8.5 -97.5q61 131 134 131q33 0 51.5 -22.5
t18.5 -53.5zM87 -107q0 -48 -50.5 -99.5t-120.5 -65.5q-1 0 -1 11t1 11q20 4 37 12q16 8 22.5 11.5t18 12t16 18.5t4.5 23q0 12 -8 29t-8 31q0 23 13 37.5t36 14.5q20 0 30 -14t10 -32z" />
    <glyph glyph-name="Rcaron" unicode="&#x158;" horiz-adv-x="639" 
d="M622 555q0 -75 -61.5 -129t-172.5 -58q160 0 160 -120q0 -30 -17.5 -94.5t-17.5 -84.5q0 -54 44 -54q43 0 61 15q1 0 4 -5.5t4.5 -11.5t0.5 -6q-45 -24 -107 -24q-115 0 -115 92q0 30 24.5 121.5t24.5 110.5q0 50 -129 50h-62l-104 -329q-1 -2 0.5 -3t4.5 -1h90
q1 0 -0.5 -6t-4 -12t-3.5 -6h-301q-1 0 0 6t3.5 12t3.5 6h90q7 0 7 4l206 653q1 2 0 3t-5 1h-90q-1 0 0.5 6t4 12t3.5 6h250q98 0 151 -40.5t53 -113.5zM534 619q0 36 -26.5 51t-86.5 15h-48q-6 0 -8 -4l-95 -300h69q99 0 136 56q20 30 39.5 86.5t19.5 95.5zM637 969
q-34 -29 -68.5 -65t-68.5 -75t-48 -54q-2 -1 -13 2.5t-11 4.5q-11 93 -50 189l54 8q28 -51 46 -127q59 61 137 126q3 3 19 -6q4 -2 3 -3z" />
    <glyph glyph-name="rcaron" unicode="&#x159;" horiz-adv-x="405" 
d="M404 358q0 -23 -15.5 -44.5t-36.5 -21.5t-32 11t-11 26q0 13 4.5 22t4.5 12q0 22 -18 22q-24 0 -54.5 -41.5t-77.5 -141.5l-63 -202h-79l109 345q6 21 0 34t-21 13q-30 0 -56 -54l-23 8q21 46 54 67t63 21q43 0 56.5 -33.5t-8.5 -97.5q61 131 134 131q33 0 51.5 -22.5
t18.5 -53.5zM465 714q-34 -29 -68.5 -65t-68.5 -75t-48 -54q-2 -1 -13 2.5t-11 4.5q-11 93 -50 189l54 8q28 -51 46 -127q59 61 137 126q3 3 19 -6q4 -2 3 -3z" />
    <glyph glyph-name="Sacute" unicode="&#x15a;" horiz-adv-x="519" 
d="M534 723l-55 -180q-1 -1 -13 -1t-12 1q23 71 -6.5 115t-86.5 44q-67 0 -103.5 -32.5t-36.5 -89.5q0 -38 24.5 -74t59 -65.5t69 -60.5t59 -72.5t24.5 -87.5q0 -106 -67 -171.5t-176 -65.5q-51 0 -92.5 19t-49.5 19q-20 0 -28.5 -4.5t-15.5 -17.5q-3 -3 -24 0l63 219
q0 1 6.5 1.5t12.5 0t6 -1.5q-28 -88 3.5 -150t125.5 -62q74 0 117 36t43 104q0 42 -24 78.5t-58.5 65t-68.5 58t-58 70t-24 88.5q0 91 61 155.5t148 64.5q37 0 75 -12.5t41 -12.5q25 0 36 22q3 4 21 2q4 -1 4 -2zM588 930q0 -38 -66.5 -84.5t-199.5 -70.5q-1 1 -0.5 6.5
t2.5 11.5t3 6q47 9 83.5 29t56.5 42.5t35 43.5t28 34.5t26 13.5q15 0 23.5 -9t8.5 -23z" />
    <glyph glyph-name="sacute" unicode="&#x15b;" horiz-adv-x="361" 
d="M329 347q0 -20 -12.5 -31t-30.5 -11t-28 11t-10 26q0 11 7.5 23t7.5 19q0 27 -46 27q-70 0 -70 -73q0 -20 13.5 -39t33 -35t39 -33.5t33 -42.5t13.5 -54q0 -54 -37 -98.5t-115 -44.5q-55 0 -88 27.5t-33 70.5q0 22 13 38t33 16q19 0 29.5 -12t10.5 -26q0 -24 -12.5 -33.5
t-12.5 -20.5q0 -36 67 -36q39 0 61 21t22 59q0 30 -20.5 57t-44.5 44t-44.5 44.5t-20.5 58.5q0 55 39 95t98 40q45 0 75 -25.5t30 -61.5zM456 665q0 -38 -66.5 -84.5t-199.5 -70.5q-1 1 -0.5 6.5t2.5 11.5t3 6q47 9 83.5 29t56.5 42.5t35 43.5t28 34.5t26 13.5q15 0 23.5 -9
t8.5 -23z" />
    <glyph glyph-name="Scedilla" unicode="&#x15e;" horiz-adv-x="519" 
d="M534 723l-55 -180q-1 -1 -13 -1t-12 1q23 71 -6.5 115t-86.5 44q-67 0 -103.5 -32.5t-36.5 -89.5q0 -38 24.5 -74t59 -65.5t69 -60.5t59 -72.5t24.5 -87.5q0 -106 -67 -171.5t-176 -65.5h-4q-10 -12 -10 -25q0 -22 20.5 -55t20.5 -61q0 -32 -26 -53t-56 -21
q-33 0 -51.5 20.5t-18.5 51.5q0 12 10 25t22 13q21 0 21 -23q0 -9 -9 -18.5t-9 -13.5q0 -12 10.5 -21.5t26.5 -9.5q25 0 35 10.5t10 30.5q0 13 -26 43t-26 54q0 30 25 55q-33 4 -65 20t-42 16q-20 0 -28.5 -4.5t-15.5 -17.5q-3 -3 -24 0l63 219q0 1 6.5 1.5t12.5 0t6 -1.5
q-28 -88 3.5 -150t125.5 -62q74 0 117 36t43 104q0 42 -24 78.5t-58.5 65t-68.5 58t-58 70t-24 88.5q0 91 61 155.5t148 64.5q37 0 75 -12.5t41 -12.5q25 0 36 22q3 4 21 2q4 -1 4 -2z" />
    <glyph glyph-name="scedilla" unicode="&#x15f;" horiz-adv-x="361" 
d="M146 -158q0 -32 -26 -53t-56 -21q-33 0 -51.5 20.5t-18.5 51.5q0 12 10 25t22 13q21 0 21 -23q0 -9 -9 -18.5t-9 -13.5q0 -12 10.5 -21.5t26.5 -9.5q25 0 35 10.5t10 30.5q0 13 -26 43t-26 54q0 34 35 64q-41 7 -64.5 33t-23.5 62q0 22 13 38t33 16q19 0 29.5 -12
t10.5 -26q0 -24 -12.5 -33.5t-12.5 -20.5q0 -36 67 -36q39 0 61 21t22 59q0 30 -20.5 57t-44.5 44t-44.5 44.5t-20.5 58.5q0 55 39 95t98 40q45 0 75 -25.5t30 -61.5q0 -20 -12.5 -31t-30.5 -11t-28 11t-10 26q0 11 7.5 23t7.5 19q0 27 -46 27q-70 0 -70 -73q0 -20 13.5 -39
t33 -35t39 -33.5t33 -42.5t13.5 -54q0 -54 -37 -98.5t-115 -44.5h-2q-20 -13 -20 -33q0 -22 20.5 -55t20.5 -61z" />
    <glyph glyph-name="Scaron" unicode="&#x160;" horiz-adv-x="519" 
d="M534 723l-55 -180q-1 -1 -13 -1t-12 1q23 71 -6.5 115t-86.5 44q-67 0 -103.5 -32.5t-36.5 -89.5q0 -38 24.5 -74t59 -65.5t69 -60.5t59 -72.5t24.5 -87.5q0 -106 -67 -171.5t-176 -65.5q-51 0 -92.5 19t-49.5 19q-20 0 -28.5 -4.5t-15.5 -17.5q-3 -3 -24 0l63 219
q0 1 6.5 1.5t12.5 0t6 -1.5q-28 -88 3.5 -150t125.5 -62q74 0 117 36t43 104q0 42 -24 78.5t-58.5 65t-68.5 58t-58 70t-24 88.5q0 91 61 155.5t148 64.5q37 0 75 -12.5t41 -12.5q25 0 36 22q3 4 21 2q4 -1 4 -2zM585 979q-34 -29 -68.5 -65t-68.5 -75t-48 -54
q-2 -1 -13 2.5t-11 4.5q-11 93 -50 189l54 8q28 -51 46 -127q59 61 137 126q3 3 19 -6q4 -2 3 -3z" />
    <glyph glyph-name="scaron" unicode="&#x161;" horiz-adv-x="361" 
d="M329 347q0 -20 -12.5 -31t-30.5 -11t-28 11t-10 26q0 11 7.5 23t7.5 19q0 27 -46 27q-70 0 -70 -73q0 -20 13.5 -39t33 -35t39 -33.5t33 -42.5t13.5 -54q0 -54 -37 -98.5t-115 -44.5q-55 0 -88 27.5t-33 70.5q0 22 13 38t33 16q19 0 29.5 -12t10.5 -26q0 -24 -12.5 -33.5
t-12.5 -20.5q0 -36 67 -36q39 0 61 21t22 59q0 30 -20.5 57t-44.5 44t-44.5 44.5t-20.5 58.5q0 55 39 95t98 40q45 0 75 -25.5t30 -61.5zM453 714q-34 -29 -68.5 -65t-68.5 -75t-48 -54q-2 -1 -13 2.5t-11 4.5q-11 93 -50 189l54 8q28 -51 46 -127q59 61 137 126q3 3 19 -6
q4 -2 3 -3z" />
    <glyph glyph-name="Tcommaaccent" unicode="&#x162;" horiz-adv-x="602" 
d="M701 706l-65 -206q0 -1 -6 -1.5t-12 0t-6 1.5q17 58 16 99t-36 63.5t-107 22.5h-11q-7 0 -7 -4l-206 -653q-1 -2 0 -3t5 -1h90q1 0 -0.5 -6t-4 -12t-3.5 -6h-302q-1 0 0.5 6t4 12t3.5 6h89q7 0 8 4l206 653q1 2 -0.5 3t-4.5 1h-11q-104 0 -155 -41.5t-81 -136.5
q0 -1 -12.5 -1t-12.5 1l63 199q0 3 4 3h552q2 0 2.5 -1t-0.5 -2zM215 -107q0 -48 -50.5 -99.5t-120.5 -65.5q-1 0 -1 11t1 11q20 4 37 12q16 8 22.5 11.5t18 12t16 18.5t4.5 23q0 12 -8 29t-8 31q0 23 13 37.5t36 14.5q20 0 30 -14t10 -32z" />
    <glyph glyph-name="tcommaaccent" unicode="&#x163;" horiz-adv-x="273" 
d="M299 435q1 0 -0.5 -6t-4 -12t-3.5 -6h-75l-108 -344q-4 -14 1.5 -23t18.5 -9q24 0 42.5 15t38.5 50l23 -9q-25 -50 -62 -75t-68 -25q-96 0 -58 122l94 298h-73q-1 0 0.5 6t4 12t3.5 6h73l43 140l81 6l-46 -146h75zM99 -107q0 -48 -50.5 -99.5t-120.5 -65.5q-1 0 -1 11
t1 11q20 4 37 12q16 8 22.5 11.5t18 12t16 18.5t4.5 23q0 12 -8 29t-8 31q0 23 13 37.5t36 14.5q20 0 30 -14t10 -32z" />
    <glyph glyph-name="Tcaron" unicode="&#x164;" horiz-adv-x="602" 
d="M701 706l-65 -206q0 -1 -6 -1.5t-12 0t-6 1.5q17 58 16 99t-36 63.5t-107 22.5h-11q-7 0 -7 -4l-206 -653q-1 -2 0 -3t5 -1h90q1 0 -0.5 -6t-4 -12t-3.5 -6h-302q-1 0 0.5 6t4 12t3.5 6h89q7 0 8 4l206 653q1 2 -0.5 3t-4.5 1h-11q-104 0 -155 -41.5t-81 -136.5
q0 -1 -12.5 -1t-12.5 1l63 199q0 3 4 3h552q2 0 2.5 -1t-0.5 -2zM620 969q-34 -29 -68.5 -65t-68.5 -75t-48 -54q-2 -1 -13 2.5t-11 4.5q-11 93 -50 189l54 8q28 -51 46 -127q59 61 137 126q3 3 19 -6q4 -2 3 -3z" />
    <glyph glyph-name="tcaron" unicode="&#x165;" horiz-adv-x="273" 
d="M299 435q1 0 -0.5 -6t-4 -12t-3.5 -6h-75l-108 -344q-4 -14 1.5 -23t18.5 -9q24 0 42.5 15t38.5 50l23 -9q-25 -50 -62 -75t-68 -25q-96 0 -58 122l94 298h-73q-1 0 0.5 6t4 12t3.5 6h73l43 140l81 6l-46 -146h75zM411 744q31 0 31 -44q0 -39 -33 -96.5t-106 -123.5
q-2 -2 -5 4q-6 13 -3 17q18 17 32 36t21.5 32.5t13.5 36t7.5 29.5t4.5 31l2 24q3 20 5 29t9.5 17t20.5 8z" />
    <glyph glyph-name="Umacron" unicode="&#x16a;" horiz-adv-x="730" 
d="M817 709q1 0 0 -6t-3.5 -12t-3.5 -6h-79q-6 0 -8 -4l-153 -484q-67 -214 -277 -214q-100 0 -147.5 50.5t-47.5 131.5q0 45 16 98l132 418q1 2 -0.5 3t-4.5 1h-90q-1 0 0.5 6t3.5 12t3 6h302q1 0 -0.5 -6t-3.5 -12t-3 -6h-90q-6 0 -8 -4l-130 -417q-28 -86 -28 -139
q0 -49 35 -76.5t98 -27.5q83 0 135 46t85 150l147 464q1 2 -0.5 3t-4.5 1h-79q-1 0 0 6t3.5 12t3.5 6h197zM707 811h-320q-3 16 0 32h320q3 -16 0 -32z" />
    <glyph glyph-name="umacron" unicode="&#x16b;" horiz-adv-x="524" 
d="M493 431l-114 -364q-5 -14 0.5 -23t18.5 -9q24 0 42.5 14.5t38.5 50.5l24 -9q-25 -49 -65.5 -75t-71.5 -26q-99 0 -41 156q-42 -75 -95 -115t-100 -40q-37 0 -60 25t-23 68q0 44 46 147t46 132t-24 29q-31 0 -56 -54l-24 8q21 47 51.5 67.5t58.5 20.5q68 0 68 -71
q0 -39 -45 -134t-45 -142q0 -19 14.5 -32.5t33.5 -13.5q75 0 178 182l63 202zM509 556h-320q-3 16 0 32h320q3 -16 0 -32z" />
    <glyph glyph-name="Ubreve" unicode="&#x16c;" horiz-adv-x="730" 
d="M817 709q1 0 0 -6t-3.5 -12t-3.5 -6h-79q-6 0 -8 -4l-153 -484q-67 -214 -277 -214q-100 0 -147.5 50.5t-47.5 131.5q0 45 16 98l132 418q1 2 -0.5 3t-4.5 1h-90q-1 0 0.5 6t3.5 12t3 6h302q1 0 -0.5 -6t-3.5 -12t-3 -6h-90q-6 0 -8 -4l-130 -417q-28 -86 -28 -139
q0 -49 35 -76.5t98 -27.5q83 0 135 46t85 150l147 464q1 2 -0.5 3t-4.5 1h-79q-1 0 0 6t3.5 12t3.5 6h197zM720 942q-19 -60 -65.5 -107.5t-118.5 -47.5q-50 0 -78.5 26t-30 60.5t6.5 68.5q0 2 12.5 2t12.5 -2q-5 -16 -5 -32t6.5 -34t29 -29.5t59.5 -11.5q110 0 147 107
q0 1 6 1.5t12 0t6 -1.5z" />
    <glyph glyph-name="ubreve" unicode="&#x16d;" horiz-adv-x="524" 
d="M493 431l-114 -364q-5 -14 0.5 -23t18.5 -9q24 0 42.5 14.5t38.5 50.5l24 -9q-25 -49 -65.5 -75t-71.5 -26q-99 0 -41 156q-42 -75 -95 -115t-100 -40q-37 0 -60 25t-23 68q0 44 46 147t46 132t-24 29q-31 0 -56 -54l-24 8q21 47 51.5 67.5t58.5 20.5q68 0 68 -71
q0 -39 -45 -134t-45 -142q0 -19 14.5 -32.5t33.5 -13.5q75 0 178 182l63 202zM522 687q-19 -60 -65.5 -107.5t-118.5 -47.5q-50 0 -78.5 26t-30 60.5t6.5 68.5q0 1 12.5 1t12.5 -1q-5 -16 -5 -32t6.5 -34t29 -29.5t59.5 -11.5q110 0 147 107q0 1 6 1.5t12 0t6 -1.5z" />
    <glyph glyph-name="Uring" unicode="&#x16e;" horiz-adv-x="730" 
d="M817 709q1 0 0 -6t-3.5 -12t-3.5 -6h-79q-6 0 -8 -4l-153 -484q-67 -214 -277 -214q-100 0 -147.5 50.5t-47.5 131.5q0 45 16 98l132 418q1 2 -0.5 3t-4.5 1h-90q-1 0 0.5 6t3.5 12t3 6h302q1 0 -0.5 -6t-3.5 -12t-3 -6h-90q-6 0 -8 -4l-130 -417q-28 -86 -28 -139
q0 -49 35 -76.5t98 -27.5q83 0 135 46t85 150l147 464q1 2 -0.5 3t-4.5 1h-79q-1 0 0 6t3.5 12t3.5 6h197zM636 890q0 -44 -30 -74t-73 -30q-31 0 -49 18.5t-18 48.5q0 44 30 74.5t73 30.5q31 0 49 -18.5t18 -49.5zM609 887q0 46 -48 46q-27 0 -47.5 -22.5t-20.5 -53.5
q0 -46 48 -46q27 0 47.5 22.5t20.5 53.5z" />
    <glyph glyph-name="uring" unicode="&#x16f;" horiz-adv-x="524" 
d="M493 431l-114 -364q-5 -14 0.5 -23t18.5 -9q24 0 42.5 14.5t38.5 50.5l24 -9q-25 -49 -65.5 -75t-71.5 -26q-99 0 -41 156q-42 -75 -95 -115t-100 -40q-37 0 -60 25t-23 68q0 44 46 147t46 132t-24 29q-31 0 -56 -54l-24 8q21 47 51.5 67.5t58.5 20.5q68 0 68 -71
q0 -39 -45 -134t-45 -142q0 -19 14.5 -32.5t33.5 -13.5q75 0 178 182l63 202zM438 635q0 -44 -30 -74t-73 -30q-31 0 -49 18.5t-18 48.5q0 44 30 74.5t73 30.5q31 0 49 -18.5t18 -49.5zM411 632q0 46 -48 46q-27 0 -47.5 -22.5t-20.5 -53.5q0 -46 48 -46q27 0 47.5 22.5
t20.5 53.5z" />
    <glyph glyph-name="Uhungarumlaut" unicode="&#x170;" horiz-adv-x="730" 
d="M817 709q1 0 0 -6t-3.5 -12t-3.5 -6h-79q-6 0 -8 -4l-153 -484q-67 -214 -277 -214q-100 0 -147.5 50.5t-47.5 131.5q0 45 16 98l132 418q1 2 -0.5 3t-4.5 1h-90q-1 0 0.5 6t3.5 12t3 6h302q1 0 -0.5 -6t-3.5 -12t-3 -6h-90q-6 0 -8 -4l-130 -417q-28 -86 -28 -139
q0 -49 35 -76.5t98 -27.5q83 0 135 46t85 150l147 464q1 2 -0.5 3t-4.5 1h-79q-1 0 0 6t3.5 12t3.5 6h197zM804 919q0 -38 -66.5 -84.5t-199.5 -70.5q-1 1 -0.5 6.5t2.5 11.5t3 6q47 9 83.5 29t56.5 42.5t35 43.5t28 34.5t26 13.5q15 0 23.5 -9t8.5 -23zM610 919
q0 -38 -66.5 -84.5t-199.5 -70.5q-1 1 -0.5 6.5t2.5 11.5t3 6q47 9 83.5 29t56.5 42.5t35 43.5t28 34.5t26 13.5q15 0 23.5 -9t8.5 -23z" />
    <glyph glyph-name="uhungarumlaut" unicode="&#x171;" horiz-adv-x="524" 
d="M493 431l-114 -364q-5 -14 0.5 -23t18.5 -9q24 0 42.5 14.5t38.5 50.5l24 -9q-25 -49 -65.5 -75t-71.5 -26q-99 0 -41 156q-42 -75 -95 -115t-100 -40q-37 0 -60 25t-23 68q0 44 46 147t46 132t-24 29q-31 0 -56 -54l-24 8q21 47 51.5 67.5t58.5 20.5q68 0 68 -71
q0 -39 -45 -134t-45 -142q0 -19 14.5 -32.5t33.5 -13.5q75 0 178 182l63 202zM605 664q0 -38 -66.5 -84.5t-199.5 -70.5q-1 1 -0.5 6.5t2.5 11.5t3 6q47 9 83.5 29t56.5 42.5t35 43.5t28 34.5t26 13.5q15 0 23.5 -9t8.5 -23zM411 664q0 -38 -66.5 -84.5t-199.5 -70.5
q-1 1 -0.5 6.5t2.5 11.5t3 6q47 9 83.5 29t56.5 42.5t35 43.5t28 34.5t26 13.5q15 0 23.5 -9t8.5 -23z" />
    <glyph glyph-name="Uogonek" unicode="&#x172;" horiz-adv-x="730" 
d="M817 709q1 0 0 -6t-3.5 -12t-3.5 -6h-79q-6 0 -8 -4l-153 -484q-62 -194 -243 -212q-41 -21 -68.5 -50.5t-27.5 -59.5q0 -54 58 -54q33 0 52 12l1 -5v-12t-1 -6q-30 -28 -73 -28q-37 0 -60.5 22.5t-23.5 56.5q0 31 27 64.5t72 57.5q-96 3 -140.5 52.5t-44.5 129.5
q0 45 16 98l132 418q1 2 -0.5 3t-4.5 1h-90q-1 0 0.5 6t3.5 12t3 6h302q1 0 -0.5 -6t-3.5 -12t-3 -6h-90q-6 0 -8 -4l-130 -417q-28 -86 -28 -139q0 -49 35 -76.5t98 -27.5q83 0 135 46t85 150l147 464q1 2 -0.5 3t-4.5 1h-79q-1 0 0 6t3.5 12t3.5 6h197z" />
    <glyph glyph-name="uogonek" unicode="&#x173;" horiz-adv-x="524" 
d="M493 431l-114 -364q-5 -14 0.5 -23t18.5 -9q24 0 42.5 14.5t38.5 50.5l24 -9q-30 -56 -78 -84q-4 -2 -18.5 -10t-21.5 -11.5t-20.5 -11.5t-21 -13.5t-18.5 -14t-17.5 -16t-12.5 -16.5t-9 -19t-3 -20q0 -54 58 -54q33 0 52 12l1 -5v-12t-1 -6q-30 -28 -73 -28
q-37 0 -60.5 23t-23.5 57q0 38 28.5 74t79.5 57q-70 17 -19 153q-42 -75 -95 -115t-100 -40q-37 0 -60 25t-23 68q0 44 46 147t46 132t-24 29q-31 0 -56 -54l-24 8q21 47 51.5 67.5t58.5 20.5q68 0 68 -71q0 -39 -45 -134t-45 -142q0 -19 14.5 -32.5t33.5 -13.5
q75 0 178 182l63 202z" />
    <glyph glyph-name="Wcircumflex" unicode="&#x174;" horiz-adv-x="915" 
d="M1072 685h-79q-5 0 -35 -42l-444 -658q-2 -3 -14 -2.5t-13 2.5l-14 319l-223 -319q-1 -2 -8 -2.5t-13 0.5t-6 2l-31 696q0 4 -7 4h-89q-1 1 0 6.5t3 11.5t3 6h721q1 0 0 -6t-3.5 -12t-3.5 -6h-63q-8 0 -16 -8t-31 -38q-8 -11 -13 -17l-122 -178l14 -311l346 510
q27 41 21 42h-71q-1 0 0 6t3 12t3 6h192q1 0 0 -6t-3.5 -12t-3.5 -6zM701 685h-135q-6 0 -6 -4l9 -202l117 168q28 38 15 38zM470 341l-15 337q1 7 -5 7h-148q-4 0 -5.5 -1t-0.5 -3l25 -551zM739 779l-54 -8q-28 51 -46 127q-59 -61 -137 -126q-3 -3 -19 6q-4 2 -3 3
q34 29 68.5 65t68.5 75t48 54q2 1 13 -2.5t11 -4.5q11 -93 50 -189z" />
    <glyph glyph-name="wcircumflex" unicode="&#x175;" horiz-adv-x="705" 
d="M672 377q0 -76 -45 -167t-113.5 -155t-128.5 -64q-56 0 -82.5 32t-13.5 90q-34 -54 -86.5 -88t-99.5 -34q-26 0 -45.5 19.5t-19.5 59.5q0 44 45.5 154t45.5 139t-23 29q-31 0 -56 -54l-24 8q41 88 117 88q57 0 57 -71q0 -39 -43 -135.5t-43 -143.5q0 -18 13 -30.5
t31 -12.5q36 0 77.5 40.5t76.5 107.5l73 236l81 6l-97 -318q-15 -45 -3 -65.5t44 -20.5q37 0 84 42.5t80 103.5t33 109q0 30 -7 59t-7 47q0 20 9 33t25 13q23 0 34 -16t11 -41zM545 524l-54 -8q-28 51 -46 127q-59 -61 -137 -126q-3 -3 -19 6q-4 2 -3 3q34 29 68.5 65
t68.5 75t48 54q2 1 13 -2.5t11 -4.5q11 -93 50 -189z" />
    <glyph glyph-name="Ycircumflex" unicode="&#x176;" horiz-adv-x="632" 
d="M769 709q1 0 -0.5 -6t-4 -12t-3.5 -6h-77q-10 0 -43 -42l-250 -317l-94 -298q-1 -2 0.5 -3t4.5 -1h90q1 0 -0.5 -6t-3.5 -12t-3 -6h-302q-1 0 0.5 6t3.5 12t3 6h90q7 0 8 4l95 300l-62 353q-2 4 -7 4h-93q-1 0 0.5 6t4 12t3.5 6h323q1 0 -0.5 -6t-3.5 -12t-3 -6h-108
q-5 -1 -5 -4l53 -327l225 289q30 41 25 42h-75q-1 0 0.5 6t3.5 12t3 6h202zM609 779l-54 -8q-28 51 -46 127q-59 -61 -137 -126q-3 -3 -19 6q-4 2 -3 3q34 29 68.5 65t68.5 75t48 54q2 1 13 -2.5t11 -4.5q11 -93 50 -189z" />
    <glyph glyph-name="ycircumflex" unicode="&#x177;" horiz-adv-x="456" 
d="M485 407q0 -27 -36 -38q-23 -7 -38.5 -15t-33 -26.5t-30 -38t-32.5 -61.5t-37.5 -83.5t-49.5 -118.5q-24 -59 -38.5 -93t-34 -75.5t-33.5 -64t-33 -46.5t-36.5 -35.5t-39.5 -19t-47 -7.5q-43 0 -70 24.5t-27 62.5q0 25 14 39.5t34 14.5q42 0 42 -35q0 -13 -9 -32t-9 -26
q0 -15 7 -19.5t24 -4.5q45 0 82 37.5t58.5 80.5t65.5 147q10 23 15 35l-35 205q-13 70 -28 106t-25 42t-25 6q-22 0 -47 -43l-19 15q52 95 117 95q32 0 52.5 -34.5t39.5 -138.5l23 -127q63 154 113 227t96 73q30 0 30 -28zM416 524l-54 -8q-28 51 -46 127q-59 -61 -137 -126
q-3 -3 -19 6q-4 2 -3 3q34 29 68.5 65t68.5 75t48 54q2 1 13 -2.5t11 -4.5q11 -93 50 -189z" />
    <glyph glyph-name="Ydieresis" unicode="&#x178;" horiz-adv-x="632" 
d="M769 709q1 0 -0.5 -6t-4 -12t-3.5 -6h-77q-10 0 -43 -42l-250 -317l-94 -298q-1 -2 0.5 -3t4.5 -1h90q1 0 -0.5 -6t-3.5 -12t-3 -6h-302q-1 0 0.5 6t3.5 12t3 6h90q7 0 8 4l95 300l-62 353q-2 4 -7 4h-93q-1 0 0.5 6t4 12t3.5 6h323q1 0 -0.5 -6t-3.5 -12t-3 -6h-108
q-5 -1 -5 -4l53 -327l225 289q30 41 25 42h-75q-1 0 0.5 6t3.5 12t3 6h202zM633 849q0 -22 -16 -39t-36 -17q-14 0 -23 9.5t-9 24.5q0 22 15.5 39t36.5 17q14 0 23 -9.5t9 -24.5zM441 849q0 -22 -16 -39t-36 -17q-14 0 -23 9.5t-9 24.5q0 22 16 39t36 17q14 0 23 -9.5
t9 -24.5z" />
    <glyph glyph-name="Zacute" unicode="&#x179;" 
d="M670 709q1 0 1.5 -3.5t0 -8t-2.5 -6.5l-559 -663q-2 -4 3 -4h120q125 0 186.5 45.5t88.5 131.5q0 1 6.5 1.5t12.5 0t6 -1.5l-62 -198q-1 -3 -4 -3h-488q-1 0 -1.5 3.5t0 8t2.5 6.5l559 663q0 3 -3 4h-114q-97 0 -153.5 -47.5t-85.5 -139.5q0 -2 -12.5 -2t-12.5 2l66 208
q3 3 4 3h442zM639 920q0 -38 -66.5 -84.5t-199.5 -70.5q-1 1 -0.5 6.5t2.5 11.5t3 6q47 9 83.5 29t56.5 42.5t35 43.5t28 34.5t26 13.5q15 0 23.5 -9t8.5 -23z" />
    <glyph glyph-name="zacute" unicode="&#x17a;" horiz-adv-x="449" 
d="M435 428l-326 -329q7 2 20 2q33 0 69.5 -18t67 -36t47.5 -18q71 0 71 70q0 32 -19 32q-5 0 -19 -6.5t-29 -6.5q-13 0 -21 8t-8 21q0 19 11.5 30.5t31.5 11.5q36 0 58.5 -23.5t22.5 -59.5q0 -55 -38.5 -85.5t-96.5 -30.5q-30 0 -91 22t-90 22q-50 0 -89 -47l-18 17
l326 335q-19 -11 -47 -11q-71 0 -145 30l-29 -75l-22 8l58 151q122 -59 192 -59q8 0 14.5 1t13.5 4t11 5t11.5 8l10 8t11 10t10.5 10l13 13zM473 665q0 -38 -66.5 -84.5t-199.5 -70.5q-1 1 -0.5 6.5t2.5 11.5t3 6q47 9 83.5 29t56.5 42.5t35 43.5t28 34.5t26 13.5
q15 0 23.5 -9t8.5 -23z" />
    <glyph glyph-name="Zdotaccent" unicode="&#x17b;" 
d="M670 709q1 0 1.5 -3.5t0 -8t-2.5 -6.5l-559 -663q-2 -4 3 -4h120q125 0 186.5 45.5t88.5 131.5q0 1 6.5 1.5t12.5 0t6 -1.5l-62 -198q-1 -3 -4 -3h-488q-1 0 -1.5 3.5t0 8t2.5 6.5l559 663q0 3 -3 4h-114q-97 0 -153.5 -47.5t-85.5 -139.5q0 -2 -12.5 -2t-12.5 2l66 208
q3 3 4 3h442zM521 849q0 -22 -16 -39t-36 -17q-14 0 -23 9.5t-9 24.5q0 22 16 39t36 17q14 0 23 -9.5t9 -24.5z" />
    <glyph glyph-name="zdotaccent" unicode="&#x17c;" horiz-adv-x="449" 
d="M435 428l-326 -329q7 2 20 2q33 0 69.5 -18t67 -36t47.5 -18q71 0 71 70q0 32 -19 32q-5 0 -19 -6.5t-29 -6.5q-13 0 -21 8t-8 21q0 19 11.5 30.5t31.5 11.5q36 0 58.5 -23.5t22.5 -59.5q0 -55 -38.5 -85.5t-96.5 -30.5q-30 0 -91 22t-90 22q-50 0 -89 -47l-18 17
l326 335q-19 -11 -47 -11q-71 0 -145 30l-29 -75l-22 8l58 151q122 -59 192 -59q8 0 14.5 1t13.5 4t11 5t11.5 8l10 8t11 10t10.5 10l13 13zM354 594q0 -22 -16 -39t-36 -17q-14 0 -23 9.5t-9 24.5q0 22 16 39t36 17q14 0 23 -9.5t9 -24.5z" />
    <glyph glyph-name="Zcaron" unicode="&#x17d;" 
d="M670 709q1 0 1.5 -3.5t0 -8t-2.5 -6.5l-559 -663q-2 -4 3 -4h120q125 0 186.5 45.5t88.5 131.5q0 1 6.5 1.5t12.5 0t6 -1.5l-62 -198q-1 -3 -4 -3h-488q-1 0 -1.5 3.5t0 8t2.5 6.5l559 663q0 3 -3 4h-114q-97 0 -153.5 -47.5t-85.5 -139.5q0 -2 -12.5 -2t-12.5 2l66 208
q3 3 4 3h442zM636 969q-34 -29 -68.5 -65t-68.5 -75t-48 -54q-2 -1 -13 2.5t-11 4.5q-11 93 -50 189l54 8q28 -51 46 -127q59 61 137 126q3 3 19 -6q4 -2 3 -3z" />
    <glyph glyph-name="zcaron" unicode="&#x17e;" horiz-adv-x="449" 
d="M435 428l-326 -329q7 2 20 2q33 0 69.5 -18t67 -36t47.5 -18q71 0 71 70q0 32 -19 32q-5 0 -19 -6.5t-29 -6.5q-13 0 -21 8t-8 21q0 19 11.5 30.5t31.5 11.5q36 0 58.5 -23.5t22.5 -59.5q0 -55 -38.5 -85.5t-96.5 -30.5q-30 0 -91 22t-90 22q-50 0 -89 -47l-18 17
l326 335q-19 -11 -47 -11q-71 0 -145 30l-29 -75l-22 8l58 151q122 -59 192 -59q8 0 14.5 1t13.5 4t11 5t11.5 8l10 8t11 10t10.5 10l13 13zM470 714q-34 -29 -68.5 -65t-68.5 -75t-48 -54q-2 -1 -13 2.5t-11 4.5q-11 93 -50 189l54 8q28 -51 46 -127q59 61 137 126
q3 3 19 -6q4 -2 3 -3z" />
    <glyph glyph-name="florin" unicode="&#x192;" horiz-adv-x="344" 
d="M514 669q0 -26 -14.5 -41t-35.5 -15q-39 0 -39 33q0 10 7.5 22t7.5 25q0 26 -26 26q-22 0 -38 -5t-37.5 -26.5t-37.5 -60t-33 -110t-30 -172.5q0 -3 6 -3h91q1 -1 0 -6.5t-3 -11.5t-3 -6h-88q-7 0 -7 -4l-2 -10q-15 -102 -40 -201t-62.5 -198t-92 -160t-117.5 -61
q-45 0 -67.5 20.5t-22.5 55.5q0 24 13.5 40t35.5 16q40 0 40 -33q0 -11 -7.5 -23t-7.5 -24q0 -15 5 -20.5t20 -5.5q75 0 119 121q34 94 77 375q2 14 6 44l10 64q1 2 -0.5 3t-5.5 1h-91q-1 0 0 6t3 12t3 6h90q7 0 7 3v10q25 165 104.5 277.5t173.5 112.5q51 0 70 -20t19 -56z
" />
    <glyph glyph-name="Aringacute" unicode="&#x1fa;" horiz-adv-x="621" 
d="M570 0h-286q-1 0 0.5 6t4 12t3.5 6h72q7 0 7 3v208h-235l-119 -169q-27 -38 -18 -41q3 -1 7 -1h75q1 0 -0.5 -6t-4 -12t-3.5 -6h-202q-1 0 0.5 6t3.5 12t3 6h54q24 0 53 41l448 637q-44 13 -44 64q0 44 30 74.5t73 30.5q31 0 49 -18.5t18 -49.5q0 -39 -24 -67.5
t-61 -35.5v-673q0 -3 7 -3h97q1 0 -0.5 -6t-4 -12t-3.5 -6zM532 800q0 46 -48 46q-27 0 -47.5 -22.5t-20.5 -53.5q0 -46 48 -46q27 0 47.5 22.5t20.5 53.5zM371 260v306l-216 -306h216zM676 1054q0 -38 -66.5 -84.5t-199.5 -70.5q-1 1 -0.5 6.5t2.5 11.5t3 6q47 9 83.5 29
t56.5 42.5t35 43.5t28 34.5t26 13.5q15 0 23.5 -9t8.5 -23z" />
    <glyph glyph-name="aringacute" unicode="&#x1fb;" horiz-adv-x="510" 
d="M477 441l-114 -361q-14 -44 16 -44q46 0 81 65l24 -9q-26 -50 -62.5 -75.5t-67.5 -25.5q-37 0 -57.5 22.5t-13.5 54.5q-43 -77 -122 -77q-68 0 -100 46t-32 113q0 65 36 130.5t100.5 110t138.5 44.5q26 0 48.5 -13.5t28.5 -36.5l22 38zM369 347q-3 30 -20.5 47t-44.5 17
q-43 0 -85 -30q-52 -40 -84 -122t-32 -151q0 -88 71 -88q45 0 76 37.5t70 137.5zM413 592q0 -44 -30 -74t-73 -30q-31 0 -49 18.5t-18 48.5q0 44 30 74.5t73 30.5q31 0 49 -18.5t18 -49.5zM386 589q0 46 -48 46q-27 0 -47.5 -22.5t-20.5 -53.5q0 -46 48 -46q27 0 47.5 22.5
t20.5 53.5zM524 860q0 -38 -66.5 -84.5t-199.5 -70.5q-1 1 -0.5 6.5t2.5 11.5t3 6q47 9 83.5 29t56.5 42.5t35 43.5t28 34.5t26 13.5q15 0 23.5 -9t8.5 -23z" />
    <glyph glyph-name="AEacute" unicode="&#x1fc;" horiz-adv-x="866" 
d="M897 705l-50 -178q0 -1 -6.5 -1.5t-12.5 0t-6 1.5q24 76 -4 116.5t-107 40.5h-97q-6 0 -8 -3l-93 -296h34q60 0 89 21t46 73q0 1 6 1.5t12 0t6 -1.5l-72 -233q0 -1 -6.5 -1.5t-12.5 0t-6 1.5q20 52 4 83.5t-74 31.5h-33l-106 -334q-1 -1 0.5 -2t4.5 -1h87q125 0 186 45
t89 131q0 1 6.5 1.5t12.5 0t6 -1.5l-62 -197q-2 -3 -4 -3h-540q-1 0 0.5 6t3.5 12t3 6h90q7 0 8 3l74 238h-184l-163 -199q-27 -37 -10 -42h74q1 0 -0.5 -6t-4 -12t-3.5 -6h-202q-1 0 0.5 6t3.5 12t3 6h40q23 0 34.5 7.5t32.5 33.5l502 619h-108q-1 0 0.5 6t4 12t3.5 6h508
q2 0 1 -3zM483 639l-285 -350h175zM829 920q0 -38 -66.5 -84.5t-199.5 -70.5q-1 1 -0.5 6.5t2.5 11.5t3 6q47 9 83.5 29t56.5 42.5t35 43.5t28 34.5t26 13.5q15 0 23.5 -9t8.5 -23z" />
    <glyph glyph-name="aeacute" unicode="&#x1fd;" horiz-adv-x="655" 
d="M636 353q0 -62 -62.5 -106t-165.5 -44h-54q-15 -57 -15 -91q0 -97 90 -97q84 0 153 80l14 -17q-74 -87 -169 -87q-47 0 -85.5 22.5t-57.5 62.5q-67 -85 -158 -85q-61 0 -93 26.5t-32 69.5q0 53 55 96.5t160 43.5h53q21 79 21 120q0 35 -20 49t-62 14q-40 0 -40 -26
q0 -7 7.5 -19t7.5 -23q0 -15 -10 -26t-28 -11t-30.5 11t-12.5 31q0 32 31.5 59.5t75.5 27.5q47 0 84.5 -22.5t53.5 -61.5q77 84 178 84q57 0 84 -24.5t27 -56.5zM569 363q0 47 -51 47q-62 0 -96 -43t-61 -140h52q83 0 119.5 40t36.5 96zM261 203h-28q-85 0 -124.5 -35
t-39.5 -88q0 -65 63 -65q15 0 26.5 2t21.5 8.5t17 11.5t14 18t11.5 21t10 26.5t8.5 29t9.5 34.5t10.5 37zM589 665q0 -38 -66.5 -84.5t-199.5 -70.5q-1 1 -0.5 6.5t2.5 11.5t3 6q47 9 83.5 29t56.5 42.5t35 43.5t28 34.5t26 13.5q15 0 23.5 -9t8.5 -23z" />
    <glyph glyph-name="Oslashacute" unicode="&#x1fe;" horiz-adv-x="701" 
d="M682 459q0 -118 -55.5 -228.5t-149.5 -179t-198 -68.5q-89 0 -147 49l-46 -60q-1 -1 -6 1.5t-9 6t-3 4.5l48 63q-67 70 -67 202q0 118 55.5 228.5t149.5 179.5t198 69q88 0 145 -48l46 60q1 1 5.5 -2t8.5 -7l4 -4q-26 -34 -47 -62q68 -71 68 -204zM576 650
q-35 51 -124 51q-58 0 -99 -21.5t-76 -76.5q-39 -64 -93 -216t-54 -233q0 -42 12 -73l33 44t78 102.5t107 140t102 133.5t83 109zM601 554q0 46 -13 75l-108 -142q-109 -142 -218 -285l-109 -142q35 -53 126 -53q58 0 99 21.5t75 76.5q40 64 94 216.5t54 232.5zM681 930
q0 -38 -66.5 -84.5t-199.5 -70.5q-1 1 -0.5 6.5t2.5 11.5t3 6q47 9 83.5 29t56.5 42.5t35 43.5t28 34.5t26 13.5q15 0 23.5 -9t8.5 -23z" />
    <glyph glyph-name="oslashacute" unicode="&#x1ff;" horiz-adv-x="490" 
d="M441 266q0 -108 -77.5 -191.5t-177.5 -83.5q-59 0 -100 35l-40 -47q0 -1 -5 1.5t-9 6t-4 4.5l43 49q-42 47 -42 118q0 108 77.5 192t177.5 84q58 0 98 -34l42 48q0 1 4.5 -2.5t8.5 -7.5l4 -4q-22 -25 -42 -49q42 -48 42 -119zM359 373q-22 37 -77 37q-45 0 -72.5 -18
t-47.5 -53q-18 -32 -41 -111t-23 -116q0 -20 4 -36zM372 313q0 21 -4 36l-64 -74l-130 -148l-64 -74q22 -39 78 -39q78 0 120 72q18 33 41 111.5t23 115.5zM512 665q0 -38 -66.5 -84.5t-199.5 -70.5q-1 1 -0.5 6.5t2.5 11.5t3 6q47 9 83.5 29t56.5 42.5t35 43.5t28 34.5
t26 13.5q15 0 23.5 -9t8.5 -23z" />
    <glyph glyph-name="Scommaaccent" unicode="&#x218;" horiz-adv-x="519" 
d="M534 723l-55 -180q-1 -1 -13 -1t-12 1q23 71 -6.5 115t-86.5 44q-67 0 -103.5 -32.5t-36.5 -89.5q0 -38 24.5 -74t59 -65.5t69 -60.5t59 -72.5t24.5 -87.5q0 -106 -67 -171.5t-176 -65.5q-51 0 -92.5 19t-49.5 19q-20 0 -28.5 -4.5t-15.5 -17.5q-3 -3 -24 0l63 219
q0 1 6.5 1.5t12.5 0t6 -1.5q-28 -88 3.5 -150t125.5 -62q74 0 117 36t43 104q0 42 -24 78.5t-58.5 65t-68.5 58t-58 70t-24 88.5q0 91 61 155.5t148 64.5q37 0 75 -12.5t41 -12.5q25 0 36 22q3 4 21 2q4 -1 4 -2zM236 -117q0 -48 -50.5 -99.5t-120.5 -65.5q-1 0 -1 11t1 11
q20 4 37 12q16 8 22.5 11.5t18 12t16 18.5t4.5 23q0 12 -8 29t-8 31q0 23 13 37.5t36 14.5q20 0 30 -14t10 -32z" />
    <glyph glyph-name="scommaaccent" unicode="&#x219;" horiz-adv-x="361" 
d="M329 347q0 -20 -12.5 -31t-30.5 -11t-28 11t-10 26q0 11 7.5 23t7.5 19q0 27 -46 27q-70 0 -70 -73q0 -20 13.5 -39t33 -35t39 -33.5t33 -42.5t13.5 -54q0 -54 -37 -98.5t-115 -44.5q-55 0 -88 27.5t-33 70.5q0 22 13 38t33 16q19 0 29.5 -12t10.5 -26q0 -24 -12.5 -33.5
t-12.5 -20.5q0 -36 67 -36q39 0 61 21t22 59q0 30 -20.5 57t-44.5 44t-44.5 44.5t-20.5 58.5q0 55 39 95t98 40q45 0 75 -25.5t30 -61.5zM129 -107q0 -48 -50.5 -99.5t-120.5 -65.5q-1 0 -1 11t1 11q20 4 37 12q16 8 22.5 11.5t18 12t16 18.5t4.5 23q0 12 -8 29t-8 31
q0 23 13 37.5t36 14.5q20 0 30 -14t10 -32z" />
    <glyph glyph-name="schwa" unicode="&#x259;" horiz-adv-x="425" 
d="M29 73q0 61 62.5 103.5t165.5 42.5h53q16 55 16 94q0 98 -90 98q-84 0 -153 -81l-14 17q74 87 169 87q68 0 112.5 -46.5t44.5 -120.5q0 -108 -77.5 -192t-177.5 -84q-57 0 -84 25t-27 57zM96 62q0 -47 50 -47q62 0 96 41.5t61 138.5h-51q-84 0 -120 -38.5t-36 -94.5z" />
    <glyph glyph-name="circumflex" unicode="&#x2c6;" horiz-adv-x="326" 
d="M343 524l-54 -8q-28 51 -46 127q-59 -61 -137 -126q-3 -3 -19 6q-4 2 -3 3q34 29 68.5 65t68.5 75t48 54q2 1 13 -2.5t11 -4.5q11 -93 50 -189z" />
    <glyph glyph-name="caron" unicode="&#x2c7;" horiz-adv-x="326" 
d="M427 714q-34 -29 -68.5 -65t-68.5 -75t-48 -54q-2 -1 -13 2.5t-11 4.5q-11 93 -50 189l54 8q28 -51 46 -127q59 61 137 126q3 3 19 -6q4 -2 3 -3z" />
    <glyph glyph-name="breve" unicode="&#x2d8;" horiz-adv-x="380" 
d="M495 687q-19 -60 -65.5 -107.5t-118.5 -47.5q-50 0 -78.5 26t-30 60.5t6.5 68.5q0 1 12.5 1t12.5 -1q-5 -16 -5 -32t6.5 -34t29 -29.5t59.5 -11.5q110 0 147 107q0 1 6 1.5t12 0t6 -1.5z" />
    <glyph glyph-name="dotaccent" unicode="&#x2d9;" horiz-adv-x="247" 
d="M242 594q0 -22 -16 -39t-36 -17q-14 0 -23 9.5t-9 24.5q0 22 16 39t36 17q14 0 23 -9.5t9 -24.5z" />
    <glyph glyph-name="ring" unicode="&#x2da;" horiz-adv-x="283" 
d="M320 635q0 -44 -30 -74t-73 -30q-31 0 -49 18.5t-18 48.5q0 44 30 74.5t73 30.5q31 0 49 -18.5t18 -49.5zM293 632q0 46 -48 46q-27 0 -47.5 -22.5t-20.5 -53.5q0 -46 48 -46q27 0 47.5 22.5t20.5 53.5z" />
    <glyph glyph-name="ogonek" unicode="&#x2db;" horiz-adv-x="273" 
d="M154 2q-51 -18 -93.5 -54t-42.5 -73q0 -54 58 -54q32 0 52 12v-5q1 -6 1 -12t-1 -6q-30 -28 -73 -28q-37 0 -60.5 22.5t-23.5 56.5q0 41 48 85.5t118 61.5z" />
    <glyph glyph-name="tilde" unicode="&#x2dc;" horiz-adv-x="406" 
d="M475 661q0 -48 -35.5 -80.5t-88.5 -32.5q-36 0 -94 29t-78 29q-32 0 -48 -19t-16 -46q0 -1 -12.5 -1t-12.5 1q0 48 35.5 80.5t88.5 32.5q36 0 94 -29t78 -29q32 0 48 19t16 46q0 2 12.5 2t12.5 -2z" />
    <glyph glyph-name="hungarumlaut" unicode="&#x2dd;" horiz-adv-x="588" 
d="M556 664q0 -38 -66.5 -84.5t-199.5 -70.5q-1 1 -0.5 6.5t2.5 11.5t3 6q47 9 83.5 29t56.5 42.5t35 43.5t28 34.5t26 13.5q15 0 23.5 -9t8.5 -23zM362 664q0 -38 -66.5 -84.5t-199.5 -70.5q-1 1 -0.5 6.5t2.5 11.5t3 6q47 9 83.5 29t56.5 42.5t35 43.5t28 34.5t26 13.5
q15 0 23.5 -9t8.5 -23z" />
    <glyph glyph-name="commaaccent" unicode="&#x326;" horiz-adv-x="200" 
d="M119 -107q0 -48 -50.5 -99.5t-120.5 -65.5q-1 0 -1 11t1 11q20 4 37 12q16 8 22.5 11.5t18 12t16 18.5t4.5 23q0 12 -8 29t-8 31q0 23 13 37.5t36 14.5q20 0 30 -14t10 -32z" />
    <glyph glyph-name="Wgrave" unicode="&#x1e80;" horiz-adv-x="915" 
d="M1072 685h-79q-5 0 -35 -42l-444 -658q-2 -3 -14 -2.5t-13 2.5l-14 319l-223 -319q-1 -2 -8 -2.5t-13 0.5t-6 2l-31 696q0 4 -7 4h-89q-1 1 0 6.5t3 11.5t3 6h721q1 0 0 -6t-3.5 -12t-3.5 -6h-63q-8 0 -16 -8t-31 -38q-8 -11 -13 -17l-122 -178l14 -311l346 510
q27 41 21 42h-71q-1 0 0 6t3 12t3 6h192q1 0 0 -6t-3.5 -12t-3.5 -6zM701 685h-135q-6 0 -6 -4l9 -202l117 168q28 38 15 38zM470 341l-15 337q1 7 -5 7h-148q-4 0 -5.5 -1t-0.5 -3l25 -551zM710 789q1 0 0.5 -2.5t-1.5 -6.5t-2 -7.5t-2 -5.5t-2 -2q-100 24 -146 69t-46 91
q0 17 10.5 28t26.5 11q13 0 21 -14.5t16 -37t19.5 -46t38.5 -45.5t67 -32z" />
    <glyph glyph-name="wgrave" unicode="&#x1e81;" horiz-adv-x="705" 
d="M672 377q0 -76 -45 -167t-113.5 -155t-128.5 -64q-56 0 -82.5 32t-13.5 90q-34 -54 -86.5 -88t-99.5 -34q-26 0 -45.5 19.5t-19.5 59.5q0 44 45.5 154t45.5 139t-23 29q-31 0 -56 -54l-24 8q41 88 117 88q57 0 57 -71q0 -39 -43 -135.5t-43 -143.5q0 -18 13 -30.5
t31 -12.5q36 0 77.5 40.5t76.5 107.5l73 236l81 6l-97 -318q-15 -45 -3 -65.5t44 -20.5q37 0 84 42.5t80 103.5t33 109q0 30 -7 59t-7 47q0 20 9 33t25 13q23 0 34 -16t11 -41zM516 534q1 0 0.5 -2.5t-1.5 -6.5t-2 -7.5t-2 -5.5t-2 -2q-100 24 -146 69t-46 91q0 17 10.5 28
t26.5 11q13 0 21 -14.5t16 -37t19.5 -46t38.5 -45.5t67 -32z" />
    <glyph glyph-name="Wacute" unicode="&#x1e82;" horiz-adv-x="915" 
d="M1072 685h-79q-5 0 -35 -42l-444 -658q-2 -3 -14 -2.5t-13 2.5l-14 319l-223 -319q-1 -2 -8 -2.5t-13 0.5t-6 2l-31 696q0 4 -7 4h-89q-1 1 0 6.5t3 11.5t3 6h721q1 0 0 -6t-3.5 -12t-3.5 -6h-63q-8 0 -16 -8t-31 -38q-8 -11 -13 -17l-122 -178l14 -311l346 510
q27 41 21 42h-71q-1 0 0 6t3 12t3 6h192q1 0 0 -6t-3.5 -12t-3.5 -6zM701 685h-135q-6 0 -6 -4l9 -202l117 168q28 38 15 38zM470 341l-15 337q1 7 -5 7h-148q-4 0 -5.5 -1t-0.5 -3l25 -551zM785 920q0 -38 -66.5 -84.5t-199.5 -70.5q-1 1 -0.5 6.5t2.5 11.5t3 6
q47 9 83.5 29t56.5 42.5t35 43.5t28 34.5t26 13.5q15 0 23.5 -9t8.5 -23z" />
    <glyph glyph-name="wacute" unicode="&#x1e83;" horiz-adv-x="705" 
d="M672 377q0 -76 -45 -167t-113.5 -155t-128.5 -64q-56 0 -82.5 32t-13.5 90q-34 -54 -86.5 -88t-99.5 -34q-26 0 -45.5 19.5t-19.5 59.5q0 44 45.5 154t45.5 139t-23 29q-31 0 -56 -54l-24 8q41 88 117 88q57 0 57 -71q0 -39 -43 -135.5t-43 -143.5q0 -18 13 -30.5
t31 -12.5q36 0 77.5 40.5t76.5 107.5l73 236l81 6l-97 -318q-15 -45 -3 -65.5t44 -20.5q37 0 84 42.5t80 103.5t33 109q0 30 -7 59t-7 47q0 20 9 33t25 13q23 0 34 -16t11 -41zM590 665q0 -38 -66.5 -84.5t-199.5 -70.5q-1 1 -0.5 6.5t2.5 11.5t3 6q47 9 83.5 29t56.5 42.5
t35 43.5t28 34.5t26 13.5q15 0 23.5 -9t8.5 -23z" />
    <glyph glyph-name="Wdieresis" unicode="&#x1e84;" horiz-adv-x="915" 
d="M1072 685h-79q-5 0 -35 -42l-444 -658q-2 -3 -14 -2.5t-13 2.5l-14 319l-223 -319q-1 -2 -8 -2.5t-13 0.5t-6 2l-31 696q0 4 -7 4h-89q-1 1 0 6.5t3 11.5t3 6h721q1 0 0 -6t-3.5 -12t-3.5 -6h-63q-8 0 -16 -8t-31 -38q-8 -11 -13 -17l-122 -178l14 -311l346 510
q27 41 21 42h-71q-1 0 0 6t3 12t3 6h192q1 0 0 -6t-3.5 -12t-3.5 -6zM701 685h-135q-6 0 -6 -4l9 -202l117 168q28 38 15 38zM470 341l-15 337q1 7 -5 7h-148q-4 0 -5.5 -1t-0.5 -3l25 -551zM762 849q0 -22 -16 -39t-36 -17q-14 0 -23 9.5t-9 24.5q0 22 15.5 39t36.5 17
q14 0 23 -9.5t9 -24.5zM570 849q0 -22 -16 -39t-36 -17q-14 0 -23 9.5t-9 24.5q0 22 16 39t36 17q14 0 23 -9.5t9 -24.5z" />
    <glyph glyph-name="wdieresis" unicode="&#x1e85;" horiz-adv-x="705" 
d="M672 377q0 -76 -45 -167t-113.5 -155t-128.5 -64q-56 0 -82.5 32t-13.5 90q-34 -54 -86.5 -88t-99.5 -34q-26 0 -45.5 19.5t-19.5 59.5q0 44 45.5 154t45.5 139t-23 29q-31 0 -56 -54l-24 8q41 88 117 88q57 0 57 -71q0 -39 -43 -135.5t-43 -143.5q0 -18 13 -30.5
t31 -12.5q36 0 77.5 40.5t76.5 107.5l73 236l81 6l-97 -318q-15 -45 -3 -65.5t44 -20.5q37 0 84 42.5t80 103.5t33 109q0 30 -7 59t-7 47q0 20 9 33t25 13q23 0 34 -16t11 -41zM568 594q0 -22 -16 -39t-36 -17q-14 0 -23 9.5t-9 24.5q0 22 15.5 39t36.5 17q14 0 23 -9.5
t9 -24.5zM376 594q0 -22 -16 -39t-36 -17q-14 0 -23 9.5t-9 24.5q0 22 16 39t36 17q14 0 23 -9.5t9 -24.5z" />
    <glyph glyph-name="Ygrave" unicode="&#x1ef2;" horiz-adv-x="632" 
d="M769 709q1 0 -0.5 -6t-4 -12t-3.5 -6h-77q-10 0 -43 -42l-250 -317l-94 -298q-1 -2 0.5 -3t4.5 -1h90q1 0 -0.5 -6t-3.5 -12t-3 -6h-302q-1 0 0.5 6t3.5 12t3 6h90q7 0 8 4l95 300l-62 353q-2 4 -7 4h-93q-1 0 0.5 6t4 12t3.5 6h323q1 0 -0.5 -6t-3.5 -12t-3 -6h-108
q-5 -1 -5 -4l53 -327l225 289q30 41 25 42h-75q-1 0 0.5 6t3.5 12t3 6h202zM580 789q1 0 0.5 -2.5t-1.5 -6.5t-2 -7.5t-2 -5.5t-2 -2q-100 24 -146 69t-46 91q0 17 10.5 28t26.5 11q13 0 21 -14.5t16 -37t19.5 -46t38.5 -45.5t67 -32z" />
    <glyph glyph-name="ygrave" unicode="&#x1ef3;" horiz-adv-x="456" 
d="M485 407q0 -27 -36 -38q-23 -7 -38.5 -15t-33 -26.5t-30 -38t-32.5 -61.5t-37.5 -83.5t-49.5 -118.5q-24 -59 -38.5 -93t-34 -75.5t-33.5 -64t-33 -46.5t-36.5 -35.5t-39.5 -19t-47 -7.5q-43 0 -70 24.5t-27 62.5q0 25 14 39.5t34 14.5q42 0 42 -35q0 -13 -9 -32t-9 -26
q0 -15 7 -19.5t24 -4.5q45 0 82 37.5t58.5 80.5t65.5 147q10 23 15 35l-35 205q-13 70 -28 106t-25 42t-25 6q-22 0 -47 -43l-19 15q52 95 117 95q32 0 52.5 -34.5t39.5 -138.5l23 -127q63 154 113 227t96 73q30 0 30 -28zM387 534q1 0 0.5 -2.5t-1.5 -6.5t-2 -7.5t-2 -5.5
t-2 -2q-100 24 -146 69t-46 91q0 17 10.5 28t26.5 11q13 0 21 -14.5t16 -37t19.5 -46t38.5 -45.5t67 -32z" />
    <glyph glyph-name="enspace" unicode="&#x2002;" horiz-adv-x="500" 
 />
    <glyph glyph-name="emspace" unicode="&#x2003;" horiz-adv-x="1000" 
 />
    <glyph glyph-name="threeperemspace" unicode="&#x2004;" horiz-adv-x="333" 
 />
    <glyph glyph-name="fourperemspace" unicode="&#x2005;" horiz-adv-x="250" 
 />
    <glyph glyph-name="thinspace" unicode="&#x2009;" horiz-adv-x="133" 
 />
    <glyph glyph-name="hairspace" unicode="&#x200a;" horiz-adv-x="75" 
 />
    <glyph glyph-name="endash" unicode="&#x2013;" horiz-adv-x="529" 
d="M485 224h-441q-2 0 -2 12t2 12h441q1 0 1 -12t-1 -12z" />
    <glyph glyph-name="emdash" unicode="&#x2014;" horiz-adv-x="971" 
d="M927 224h-883q-2 0 -2 12t2 12h883q1 0 1 -12t-1 -12z" />
    <glyph glyph-name="quoteleft" unicode="&#x2018;" horiz-adv-x="181" 
d="M291 712q-19 -4 -41 -13q-24 -11 -35 -17.5t-23 -21.5t-12 -35q0 -14 9 -33t9 -35q0 -26 -14.5 -42.5t-40.5 -16.5q-23 0 -34.5 15.5t-11.5 36.5q0 54 57.5 112.5t137.5 74.5q1 0 1 -6.5t-0.5 -12.5t-1.5 -6z" />
    <glyph glyph-name="quoteright" unicode="&#x2019;" horiz-adv-x="181" 
d="M259 674q0 -54 -57.5 -112.5t-137.5 -74.5q-1 0 -1 6.5t0.5 12.5t1.5 6q19 4 41 13q24 11 35 17.5t23 21.5t12 35q0 14 -9 33t-9 35q0 26 14.5 42.5t40.5 16.5q23 0 34.5 -15.5t11.5 -36.5z" />
    <glyph glyph-name="quotesinglbase" unicode="&#x201a;" horiz-adv-x="181" 
d="M121 41q0 -54 -57.5 -112.5t-137.5 -74.5q-1 0 -1 6t0.5 12.5t1.5 6.5q19 4 41 13q24 11 35 17.5t23 21.5t12 35q0 14 -9 33t-9 35q0 26 14.5 42.5t40.5 16.5q23 0 34.5 -15.5t11.5 -36.5z" />
    <glyph glyph-name="quotedblleft" unicode="&#x201c;" horiz-adv-x="331" 
d="M441 712q-19 -4 -41 -13q-24 -11 -35 -17.5t-23 -21.5t-12 -35q0 -14 9 -33t9 -35q0 -26 -14.5 -42.5t-40.5 -16.5q-23 0 -34.5 15.5t-11.5 36.5q0 54 57.5 112.5t137.5 74.5q1 0 1 -6.5t-0.5 -12.5t-1.5 -6zM291 712q-19 -4 -41 -13q-24 -11 -35 -17.5t-23 -21.5
t-12 -35q0 -14 9 -33t9 -35q0 -26 -14.5 -42.5t-40.5 -16.5q-23 0 -34.5 15.5t-11.5 36.5q0 54 57.5 112.5t137.5 74.5q1 0 1 -6.5t-0.5 -12.5t-1.5 -6z" />
    <glyph glyph-name="quotedblright" unicode="&#x201d;" horiz-adv-x="331" 
d="M409 674q0 -54 -57.5 -112.5t-137.5 -74.5q-1 0 -1 6.5t0.5 12.5t1.5 6q19 4 41 13q24 11 35 17.5t23 21.5t12 35q0 14 -9 33t-9 35q0 26 14.5 42.5t40.5 16.5q23 0 34.5 -15.5t11.5 -36.5zM259 674q0 -54 -57.5 -112.5t-137.5 -74.5q-1 0 -1 6.5t0.5 12.5t1.5 6
q19 4 41 13q24 11 35 17.5t23 21.5t12 35q0 14 -9 33t-9 35q0 26 14.5 42.5t40.5 16.5q23 0 34.5 -15.5t11.5 -36.5z" />
    <glyph glyph-name="quotedblbase" unicode="&#x201e;" horiz-adv-x="331" 
d="M271 41q0 -54 -57.5 -112.5t-137.5 -74.5q-1 0 -1 6t0.5 12.5t1.5 6.5q19 4 41 13q24 11 35 17.5t23 21.5t12 35q0 14 -9 33t-9 35q0 26 14.5 42.5t40.5 16.5q23 0 34.5 -15.5t11.5 -36.5zM121 41q0 -54 -57.5 -112.5t-137.5 -74.5q-1 0 -1 6t0.5 12.5t1.5 6.5
q19 4 41 13q24 11 35 17.5t23 21.5t12 35q0 14 -9 33t-9 35q0 26 14.5 42.5t40.5 16.5q23 0 34.5 -15.5t11.5 -36.5z" />
    <glyph glyph-name="dagger" unicode="&#x2020;" horiz-adv-x="574" 
d="M559 374q0 -25 -13.5 -39t-35.5 -14q-38 0 -38 29q0 18 9.5 37t9.5 33q0 37 -46 37q-98 0 -134 -115q-10 -31 -0.5 -53t20.5 -27q2 -2 1.5 -8t-4 -11.5t-6.5 -3.5q-12 7 -32.5 -25.5t-49.5 -106t-64 -177.5t-81 -250q0 -1 -2.5 -1t-6.5 1t-7.5 2t-5.5 2t-2 2
q165 527 139 564q-4 5 -12 2q-2 -1 -2 2q0 14 8 22q51 17 66 66q18 58 -4.5 89.5t-77.5 31.5q-31 0 -46.5 -17t-15.5 -56q0 -52 -47 -52q-15 0 -25 9t-10 24q0 35 40 75.5t111 40.5q33 0 61.5 -16.5t33.5 -47.5q3 11 8 57.5t15 74.5q6 16 25.5 42t19.5 36q0 7 -7 18.5
t-7 31.5q0 24 18 42.5t42 18.5q17 0 27.5 -10t10.5 -27q0 -19 -8.5 -32t-18.5 -19t-18.5 -17t-8.5 -27q0 -11 2 -25t2 -18q0 -26 -12 -55.5t-29 -58t-21 -38.5q41 64 123 64q51 0 78.5 -33t27.5 -74z" />
    <glyph glyph-name="daggerdbl" unicode="&#x2021;" horiz-adv-x="573" 
d="M578 430q0 -25 -14 -39t-36 -14q-37 0 -37 29q0 18 11.5 34t11.5 31q0 18 -10.5 23t-37.5 5q-40 0 -76.5 -32t-49.5 -79q-3 -10 -4 -18t-1.5 -14t1 -11t3 -7.5t4.5 -5.5t4.5 -3.5t4.5 -2.5l4 -2q2 -2 1 -8t-4.5 -11.5t-5.5 -4.5q-23 14 -44.5 -13.5t-37.5 -76.5
q-15 -42 -11 -73t30 -25q2 0 2.5 -5t-1 -11t-4.5 -7q-1 0 -6.5 -2.5t-9 -4t-9.5 -6t-10.5 -10.5t-9 -16t-8.5 -23q-15 -51 6 -78t69 -27q32 0 45 12.5t13 50.5q0 52 47 52q16 0 25.5 -9t9.5 -24q0 -35 -38 -70.5t-110 -35.5q-37 0 -62 17.5t-28 45.5q0 -59 -13 -90
q-6 -14 -25.5 -40t-19.5 -37q0 -7 7 -18.5t7 -31.5q0 -25 -17.5 -43t-42.5 -18q-17 0 -27.5 10t-10.5 27q0 19 8.5 32t18.5 19t18.5 17t8.5 27q0 11 -2 24.5t-2 17.5q0 29 18 69l18 40q-45 -62 -116 -62q-53 0 -78.5 30t-25.5 63q0 24 14 38.5t35 14.5q38 0 38 -29
q0 -17 -11.5 -34t-11.5 -31q0 -19 10 -23.5t37 -4.5q40 0 77 32t50 79q3 10 4 18t1 14t-1.5 11t-2.5 7.5t-4 5.5t-4.5 3.5t-5.5 2.5l-3 2q-2 2 -1 7.5t4 11t5 4.5q23 -14 45 14.5t37 76.5q15 42 11.5 73t-29.5 25q-3 0 -3.5 5t1.5 11t4 7q1 0 4 1l4.5 1.5t5 2.5t6 3t6 4t6 6
t6 7.5t6 9.5t5.5 12t5 15q15 50 -6 77.5t-69 27.5q-32 0 -45.5 -12.5t-13.5 -50.5q0 -53 -47 -53q-15 0 -24.5 9t-9.5 25q0 35 38 70.5t109 35.5q38 0 63 -18t27 -45q0 57 14 90q6 15 25.5 40.5t19.5 36.5q0 7 -7.5 18.5t-7.5 31.5q0 24 18 42.5t43 18.5q17 0 27.5 -10.5
t10.5 -26.5q0 -19 -8.5 -32t-18.5 -19t-18.5 -17t-8.5 -27q0 -11 1.5 -25t1.5 -18q0 -21 -6 -40t-16 -38.5t-13 -29.5q43 62 116 62q53 0 78.5 -30t25.5 -63z" />
    <glyph glyph-name="bullet" unicode="&#x2022;" horiz-adv-x="345" 
d="M302 354q0 -43 -30.5 -73.5t-73.5 -30.5t-74 30.5t-31 73.5q0 44 30.5 74.5t74.5 30.5q43 0 73.5 -31t30.5 -74z" />
    <glyph glyph-name="ellipsis" unicode="&#x2026;" horiz-adv-x="618" 
d="M542 52q0 -26 -18.5 -45.5t-42.5 -19.5q-17 0 -27.5 11t-10.5 29q0 26 18.5 46t42.5 20q17 0 27.5 -11.5t10.5 -29.5zM331 52q0 -26 -18.5 -45.5t-42.5 -19.5q-17 0 -27.5 11t-10.5 29q0 26 18.5 46t42.5 20q17 0 27.5 -11.5t10.5 -29.5zM120 52q0 -26 -18.5 -45.5
t-42.5 -19.5q-17 0 -27.5 11t-10.5 29q0 26 18.5 46t42.5 20q17 0 27.5 -11.5t10.5 -29.5z" />
    <glyph glyph-name="perthousand" unicode="&#x2030;" horiz-adv-x="1024" 
d="M368 587q0 -82 -60.5 -155.5t-144.5 -73.5q-47 0 -77 34t-30 92q0 82 61 155.5t146 73.5q46 0 75.5 -34t29.5 -92zM564 725l-403 -749q0 -1 -5 2t-9 6.5t-4 4.5l401 749q0 1 5.5 -2t10 -6.5t4.5 -4.5zM989 220q0 -82 -61 -155.5t-146 -73.5q-46 0 -75.5 34t-29.5 92
q0 82 60.5 155.5t144.5 73.5q47 0 77 -34t30 -92zM650 220q0 -82 -61 -155.5t-146 -73.5q-46 0 -75.5 34t-29.5 92q0 82 60.5 155.5t144.5 73.5q47 0 77 -34t30 -92zM306 621q0 37 -11 52.5t-38 15.5q-35 0 -58 -18q-39 -30 -59.5 -97.5t-20.5 -123.5q0 -37 11 -52.5
t38 -15.5q36 0 58 18q39 30 59.5 98t20.5 123zM928 254q0 37 -11 52.5t-39 15.5q-34 0 -57 -18q-39 -30 -59.5 -98t-20.5 -123q0 -37 10.5 -52.5t37.5 -15.5q35 0 58 18q39 30 60 98t21 123zM588 254q0 37 -11 52.5t-38 15.5q-35 0 -58 -18q-39 -30 -60 -98t-21 -123
q0 -36 11.5 -52t38.5 -16q35 0 58 18q39 30 59.5 97.5t20.5 123.5z" />
    <glyph glyph-name="guilsinglleft" unicode="&#x2039;" horiz-adv-x="267" 
d="M262 371q-15 -47 -52.5 -92.5t-79.5 -69.5q24 -30 33 -71.5t-4 -91.5q0 -1 -3 -1t-7 0.5t-8 1.5t-6.5 3t-2.5 3q16 50 -17.5 97.5t-65.5 66.5q-2 2 1 4q17 7 40 20t54.5 33.5t56.5 48t33 54.5q1 1 4 1.5t7 -0.5l8 -2t6.5 -2.5t2.5 -2.5z" />
    <glyph glyph-name="guilsinglright" unicode="&#x203a;" horiz-adv-x="267" 
d="M217 207q2 -2 -1 -4q-26 -11 -58.5 -29.5t-73.5 -55t-52 -72.5q-2 -3 -15.5 0t-12.5 7q15 46 52 91.5t80 70.5q-24 29 -33 71t4 91q0 1 3 1.5t7 -0.5l8 -2t6.5 -2.5t2.5 -2.5q-16 -50 17.5 -97.5t65.5 -66.5z" />
    <glyph glyph-name="fraction" unicode="&#x2044;" horiz-adv-x="493" 
d="M433 722l-454 -750q0 -1 -5 1.5t-9 6t-4 4.5l452 749q0 1 2.5 0t5.5 -2.5t6 -3.5t5 -3z" />
    <glyph glyph-name="Euro" unicode="&#x20ac;" horiz-adv-x="670" 
d="M716 550q0 -40 -21.5 -65.5t-50.5 -25.5q-25 0 -43 18.5t-18 43.5q0 29 23 57t23 50q0 31 -30 52t-81 21q-66 0 -107 -24t-73 -75q-34 -58 -78 -178h250q1 0 0 -6t-3.5 -12t-3.5 -6h-251q-22 -62 -34 -111h248q1 0 0 -6t-3.5 -12t-3.5 -6h-247q-17 -71 -17 -112
q0 -76 36.5 -111t112.5 -35q79 0 140.5 36.5t116.5 115.5q1 1 5.5 -3t9 -8.5t3.5 -4.5q-54 -77 -125 -118.5t-150 -41.5q-108 0 -169 70.5t-61 194.5v17h-79q-1 0 0 6t3 12t3 6h75q4 55 23 111h-61q-1 0 0 6t3 12t3 6h63q49 130 151 216t220 86q84 0 141 -54t57 -122z" />
    <glyph glyph-name="published" unicode="&#x2117;" horiz-adv-x="822" 
d="M791 354q0 -154 -104.5 -262.5t-250.5 -108.5q-147 0 -251.5 109t-104.5 262q0 154 104.5 263t251.5 109t251 -109t104 -263zM766 354q0 144 -97 245t-233 101q-137 0 -233.5 -101t-96.5 -245q0 -143 96.5 -244.5t233.5 -101.5q136 0 233 101.5t97 244.5zM609 427
q0 -54 -38.5 -88t-101.5 -34q-24 0 -50 7v-157q0 -2 4 -2h48q1 0 1 -9t-1 -9h-176q-1 0 -1 9t1 9h51q4 0 4 2v385q0 2 -3 2h-52q-1 0 -1 9t1 9h164q70 0 110 -37.5t40 -95.5zM544 427q0 115 -85 115h-36q-4 0 -4 -2v-209q21 -9 50 -9q39 0 57 23t18 82z" />
    <glyph glyph-name="servicemark" unicode="&#x2120;" horiz-adv-x="518" 
d="M574 503h-94q-2 0 -2 9.5t2 9.5h24l2 1v153l-64 -177q0 -1 -7.5 -1t-8.5 1l-65 175v-151q2 -1 3 -1h24q1 0 1 -9.5t-1 -9.5h-75q-1 0 -1 9.5t1 9.5h26l2 1v165q0 1 -2 1h-26q-1 0 -1 10t1 10h74q5 0 6 -6l49 -143l54 143q2 6 4 6h74q1 0 1 -10t-1 -10h-25q-2 0 -2 -1
v-165q0 -1 2 -1h25q1 0 1 -9.5t-1 -9.5zM285 562q0 -27 -18.5 -45.5t-55.5 -18.5q-15 0 -31.5 6t-19.5 6q-8 0 -12 -10q0 -1 -8.5 -1t-8.5 1v65q0 1 10 1t10 -1q0 -17 19 -32.5t41 -15.5t32 10t10 23q0 15 -11 22t-50 20q-59 20 -59 62q0 27 19.5 42.5t46.5 15.5
q13 0 25.5 -4t15.5 -4q9 0 13 6q0 1 8 1t8 -1v-57q0 -1 -11 -1t-11 1q0 19 -15.5 29t-32.5 10q-15 0 -25 -8.5t-10 -20.5t10.5 -20t40.5 -17q70 -22 70 -64z" />
    <glyph glyph-name="trademark" unicode="&#x2122;" horiz-adv-x="546" 
d="M314 642q0 -1 -11 -1t-11 1q0 20 -1.5 28t-11 13.5t-29.5 5.5h-6h-2v-1v-165l2 -1h26q1 0 1 -9.5t-1 -9.5h-96q-1 0 -1 9.5t1 9.5h25l1 1v165q0 1 -1 1h-5q-29 0 -35.5 -9.5t-6.5 -37.5q0 -1 -10.5 -1t-10.5 1v66l1 1h181l1 -1v-66zM603 503h-94q-1 0 -1 9.5t1 9.5h24
l2 1v153l-64 -177q0 -1 -7.5 -1t-8.5 1l-65 175v-151q2 -1 3 -1h24q1 0 1 -9.5t-1 -9.5h-75q-1 0 -1 9.5t1 9.5h26l2 1v165q0 1 -2 1h-26q-1 0 -1 10t1 10h74q4 0 6 -6l49 -143l54 143q1 6 4 6h74q1 0 1 -10t-1 -10h-25q-2 0 -2 -1v-165q0 -1 2 -1h25q1 0 1 -9.5t-1 -9.5z
" />
    <glyph glyph-name="minus" unicode="&#x2212;" horiz-adv-x="398" 
d="M337 196h-283q-2 0 -2 16.5t2 16.5h283q1 0 1 -16.5t-1 -16.5z" />
    <glyph glyph-name="registered.alt" horiz-adv-x="822" 
d="M766 354q0 -154 -104.5 -262.5t-250.5 -108.5q-147 0 -251.5 109t-104.5 262q0 154 104.5 263t251.5 109t251 -109t104 -263zM741 354q0 144 -97 245t-233 101q-137 0 -233.5 -101t-96.5 -245q0 -143 96.5 -244.5t233.5 -101.5q136 0 233 101.5t97 244.5zM646 158
q-19 -21 -55 -21q-39 0 -64 28t-25 88v25q0 74 -90 74h-51v-185q0 -2 3 -2h61q1 0 1 -9t-1 -9h-188q-1 0 -1 9t1 9h51q4 0 4 2v385q0 2 -4 2h-51q-1 0 -1 9t1 9h179q63 0 100.5 -29.5t37.5 -74.5q0 -42 -34 -73.5t-86 -32.5q139 -3 139 -110v-54q0 -43 32 -43q17 0 32 17
l3 -4l4 -6zM486 466q0 53 -20 70.5t-66 17.5h-36q-3 0 -3 -2v-182h51q43 0 58.5 19.5t15.5 76.5z" />
    <glyph glyph-name="NUL" horiz-adv-x="0" 
 />
    <glyph glyph-name="hcoslug" horiz-adv-x="694" 
d="M273 18h-26q0 -12 10 -12q8 0 9 7h7q-3 -14 -18 -14q-21 0 -21 20q0 9 6 15t14 6q21 0 19 -22zM254 35q-7 0 -7 -12h14q0 12 -7 12zM195 78q8 0 8 16q0 15 -8 15t-8 -15q0 -16 8 -16zM210 4q8 0 8 16q0 15 -8 15t-8 -15q0 -16 8 -16zM210 -1q-21 0 -21 21q0 20 21 20
t21 -20q0 -9 -6 -15t-15 -6zM546 4q8 0 8 16q0 15 -8 15t-8 -15q0 -16 8 -16zM546 -1q-21 0 -21 21q0 20 21 20t21 -20q0 -9 -6 -15t-15 -6zM125 74v7h7v41h-7v7h51v-20h-8q-2 13 -11 13h-12v-18h4q5 0 6 8h7v-23h-7q-1 8 -6 8h-4v-16h10v-7h-30zM195 73q-21 0 -21 21
q0 20 21 20t21 -20q0 -9 -6 -15t-15 -6zM644 -100v800h-594v-800h594zM498 -1q-29 0 -29 28q0 13 8 21.5t19 8.5q9 0 16 -7l1 6h8v-22h-8q-5 16 -15 16q-14 0 -14 -22t16 -22q12 0 14 16h8q-2 -23 -24 -23zM372 80q7 0 7 13t-7 13q-8 0 -8 -13t8 -13zM276 0v7h6v25h-7v7h7v1
q0 19 19 19q5 0 9 -2l10 2v-52h6v-7h-23v7h5v25h-14v-25h5v-7h-23zM368 0v7h6v25h-6v7h18v-10q4 11 12 11t8 -8q0 -7 -7 -7q-6 0 -6 6v1q-3 0 -7 -9v-16h8v-7h-26zM352 73v52h-6v7h18v-27q3 9 13 9q15 0 15 -20q0 -21 -16 -21q-9 0 -14 8l-4 -8h-6zM400 75q5 0 6.5 -4
t-1.5 -6q6 0 8 8l-16 33h-5v7h25v-7h-6l9 -20l8 20h-5v7h17v-7h-5l-13 -31q-6 -16 -18 -16q-11 0 -11 9q0 7 7 7zM247 428q0 13 7.5 21t19.5 8q13 0 21 -10.5t8 -27.5q0 -22 -18 -50q-15 14 -21 20.5t-11.5 17t-5.5 21.5zM302 74v14h7q6 -9 12 -9q5 0 5 4q0 3 -12 6.5
t-12 12.5q0 12 14 12q8 0 11 -5l2 5h6v-13h-7q-5 7 -10 7t-5 -4q0 -3 12 -6t12 -12q0 -13 -14 -13q-5 0 -13 5l-1 -4h-7zM261 219q-22 0 -37 15.5t-15 38.5q0 24 16 40q34 -32 74 -82q-15 -12 -38 -12zM274 122l12 2v-11h13v-7h-13v-20q0 -5 4 -5t5 7l5 -2q-3 -13 -14 -13
q-12 0 -12 13v20h-7v7h7v9zM428 306q-26 -16 -46 -42q35 -41 62 -41q26 0 43 29l7 -2q-1 -43 -24 -68.5t-56 -25.5q-41 0 -85 45q-41 -45 -104 -45q-45 0 -77 27t-32 66q0 63 82 91q-31 32 -31 69q0 34 30.5 59.5t78.5 25.5q44 0 69.5 -22.5t25.5 -51.5q0 -19 -9 -34
q46 2 49 -37q25 38 60 38q21 0 35.5 -14.5t14.5 -37.5t-14.5 -38.5t-35.5 -15.5q-28 0 -43 25zM219 74v7h6v25h-6v7h17v-10q5 11 14 11q12 0 12 -14v-19h6v-7h-22v7h4v18q0 7 -6 7q-7 0 -7 -10v-15h4v-7h-22zM446 33h18v-7h-5q-3 -6 -9 -14q3 -5 6 -5t4 5l5 -1
q-3 -12 -13 -12q-7 0 -12 6q-6 -6 -15 -6q-18 0 -18 14q0 11 13 15q-6 6 -6 12q0 14 17 14q14 0 14 -12q0 -7 -11 -12q3 -3 6.5 -7t5.5 -6q4 5 6 9h-6v7zM429 6q3 0 8 3q-10 12 -14 16q-4 -4 -4 -9q0 -10 10 -10zM294 42v-3h14v5q-6 0 -6 6l1 3q-1 1 -3 1q-6 0 -6 -12z
M425 43q0 -4 6 -10q5 3 5 9t-6 6q-5 0 -5 -5zM312 342q30 20 42 34q29 -29 -1 -80q-33 38 -41 46zM366 18h-26q0 -12 10 -12q8 0 9 7h7q-4 -14 -18 -14q-21 0 -21 20q0 9 6 15t14 6q21 0 19 -22zM347 35q-7 0 -7 -12h14q0 12 -7 12zM124 0v7h8v41h-8v7h29v-7h-8v-16h22v16
h-8v7h29v-7h-8v-41h8v-7h-29v7h8v18h-22v-18h8v-7h-29zM576 13q7 0 7 -7t-7 -7t-7 7t7 7z" />
    <glyph glyph-name="i.dot" horiz-adv-x="272" 
d="M270 637q0 -21 -15 -36t-36 -15t-36 15t-15 36t15 36t36 15t36 -15t15 -36zM251 91q-25 -50 -62 -75t-68 -25q-38 0 -58.5 19.5t-20.5 51.5q0 39 48 147t48 154q0 16 -5 22.5t-19 6.5q-30 0 -56 -54l-24 8q21 47 51.5 67.5t58.5 20.5q69 0 69 -71q0 -43 -24 -101.5
t-48 -110t-24 -77.5q0 -39 30 -39q24 0 42.5 15t38.5 50z" />
    <glyph glyph-name="caron.alt" horiz-adv-x="333" 
d="M109 734q31 0 31 -44q0 -39 -33 -96.5t-106 -123.5q-2 -2 -5 4q-6 13 -3 17q18 17 32 36t21.5 32.5t13.5 36t7.5 29.5t4.5 31l2 24q3 20 5 29t9.5 17t20.5 8z" />
    </font>
</defs>
</svg>
